<?xml version="1.0" standalone="no"?>
<!DOCTYPE svg PUBLIC "-//W3C//DTD SVG 1.1//EN" "http://www.w3.org/Graphics/SVG/1.1/DTD/svg11.dtd" >
<svg xmlns="http://www.w3.org/2000/svg">
<metadata>
This is a custom SVG font generated by IcoMoon.
<iconset grid="14"></iconset>
</metadata>
<defs>
<font id="fontawesome-alloy" horiz-adv-x="448" >
<font-face units-per-em="448" ascent="384" descent="-64" />
<missing-glyph horiz-adv-x="448" />
<glyph class="hidden" unicode="&#xf00f;" d="M0,384L 448 -64L0 -64 z" horiz-adv-x="0" />
<glyph unicode="&#xf001;" d="M 384,328l0-280 q0-12.5 -8.5-22.25t-21.5-15.125t-25.875-8t-24.125-2.625t-24.125,2.625t-25.875,8t-21.5,15.125t-8.5,22.25t 8.5,22.25t 21.5,15.125t 25.875,8t 24.125,2.625q 26.25,0 48-9.75l0,134.25 l-192-59.25l0-177.25 q0-12.5 -8.5-22.25t-21.5-15.125t-25.875-8t-24.125-2.625t-24.125,2.625t-25.875,8t-21.5,15.125t-8.5,22.25 t 8.5,22.25t 21.5,15.125t 25.875,8t 24.125,2.625q 26.25,0 48-9.75l0,241.75 q0,7.75 4.75,14.125t 12.25,8.875l 208,64q 3,1 7,1q 10,0 17-7t 7-17z" horiz-adv-x="384"  />
<glyph unicode="&#xf002;" d="M 288,176q0,46.25 -32.875,79.125t-79.125,32.875t-79.125-32.875t-32.875-79.125t 32.875-79.125t 79.125-32.875t 79.125,32.875t 32.875,79.125zM 416-32q0-13 -9.5-22.5t-22.5-9.5q-13.5,0 -22.5,9.5l-85.75,85.5q-44.75-31 -99.75-31q-35.75,0 -68.375,13.875t-56.25,37.5t-37.5,56.25t-13.875,68.375 t 13.875,68.375t 37.5,56.25t 56.25,37.5t 68.375,13.875t 68.375-13.875t 56.25-37.5t 37.5-56.25t 13.875-68.375q0-55 -31-99.75l 85.75-85.75q 9.25-9.25 9.25-22.5z" horiz-adv-x="416"  />
<glyph unicode="&#xf003;" d="M 416,8l0,192 q-8-9 -17.25-16.5q-67-51.5 -106.5-84.5q-12.75-10.75 -20.75-16.75t-21.625-12.125t-25.625-6.125l-0.25,0 l-0.25,0 q-12,0 -25.625,6.125t-21.625,12.125t-20.75,16.75q-39.5,33 -106.5,84.5q-9.25,7.5 -17.25,16.5l0-192 q0-3.25 2.375-5.625t 5.625-2.375l 368,0 q 3.25,0 5.625,2.375t 2.375,5.625zM 416,270.75l0,2.75 l0,3.375 t-0.125,3.25 t-0.75,3.125t-1.375,2.25t-2.25,1.875t-3.5,0.625l-368,0 q-3.25,0 -5.625-2.375t-2.375-5.625q0-42 36.75-71q 48.25-38 100.25-79.25q 1.5-1.25 8.75-7.375t 11.5-9.375t 11.125-7.875t 12.625-6.875t 10.75-2.25l 0.25,0 l 0.25,0 q 5,0 10.75,2.25t 12.625,6.875t 11.125,7.875t 11.5,9.375t 8.75,7.375q 52,41.25 100.25,79.25q 13.5,10.75 25.125,28.875t 11.625,32.875z M 448,280l0-272 q0-16.5 -11.75-28.25t-28.25-11.75l-368,0 q-16.5,0 -28.25,11.75t-11.75,28.25l0,272 q0,16.5 11.75,28.25t 28.25,11.75l 368,0 q 16.5,0 28.25-11.75t 11.75-28.25z"  />
<glyph unicode="&#xf004;" d="M 224-32q-6.5,0 -11,4.5l-156,150.5q-2.5,2 -6.875,6.5t-13.875,16.375t-17,24.375t-13.375,30.25t-5.875,34.5q0,55 31.75,86t 87.75,31q 15.5,0 31.625-5.375t 30-14.5t 23.875-17.125t 19-17q 9,9 19,17t 23.875,17.125t 30,14.5t 31.625,5.375q 56,0 87.75-31t 31.75-86q0-55.25 -57.25-112.5l-155.75-150 q-4.5-4.5 -11-4.5z"  />
<glyph unicode="&#xf005;" d="M 416,222.25q0-5.5 -6.5-12l-90.75-88.5l 21.5-125q 0.25-1.75 0.25-5q0-5.25 -2.625-8.875t-7.625-3.625q-4.75,0 -10,3l-112.25,59l-112.25-59q-5.5-3 -10-3q-5.25,0 -7.875,3.625t-2.625,8.875q0,1.5 0.5,5l 21.5,125l-91,88.5q-6.25,6.75 -6.25,12q0,9.25 14,11.5l 125.5,18.25l 56.25,113.75q 4.75,10.25 12.25,10.25t 12.25-10.25l 56.25-113.75 l 125.5-18.25q 14-2.25 14-11.5z" horiz-adv-x="416"  />
<glyph unicode="&#xf006;" d="M 284.25,133l 76.5,74.25l-105.5,15.5l-47.25,95.5l-47.25-95.5l-105.5-15.5l 76.5-74.25l-18.25-105.25l 94.5,49.75l 94.25-49.75zM 416,222.25q0-5.5 -6.5-12l-90.75-88.5l 21.5-125q 0.25-1.75 0.25-5q0-12.5 -10.25-12.5q-4.75,0 -10,3l-112.25,59l-112.25-59q-5.5-3 -10-3q-5.25,0 -7.875,3.625t-2.625,8.875q0,1.5 0.5,5l 21.5,125 l-91,88.5q-6.25,6.75 -6.25,12q0,9.25 14,11.5l 125.5,18.25l 56.25,113.75q 4.75,10.25 12.25,10.25t 12.25-10.25l 56.25-113.75l 125.5-18.25q 14-2.25 14-11.5z" horiz-adv-x="416"  />
<glyph unicode="&#xf007;" d="M 352,32.75q0-30 -18.25-47.375t-48.5-17.375l-218.5,0 q-30.25,0 -48.5,17.375t-18.25,47.375q0,13.25 0.875,25.875t 3.5,27.25t 6.625,27.125t 10.75,24.375t 15.5,20.25t 21.375,13.375t 27.875,5q 2.25,0 10.5-5.375t 18.625-12t 27-12t 33.375-5.375t 33.375,5.375t 27,12t 18.625,12t 10.5,5.375q 15.25,0 27.875-5t 21.375-13.375t 15.5-20.25 t 10.75-24.375t 6.625-27.125t 3.5-27.25t 0.875-25.875zM 272,256q0-39.75 -28.125-67.875t-67.875-28.125t-67.875,28.125t-28.125,67.875t 28.125,67.875t 67.875,28.125t 67.875-28.125t 28.125-67.875z" horiz-adv-x="352"  />
<glyph unicode="&#xf008;" d="M 96-16l0,32 q0,6.5 -4.75,11.25t-11.25,4.75l-32,0 q-6.5,0 -11.25-4.75t-4.75-11.25l0-32 q0-6.5 4.75-11.25t 11.25-4.75l 32,0 q 6.5,0 11.25,4.75t 4.75,11.25zM 96,80l0,32 q0,6.5 -4.75,11.25t-11.25,4.75l-32,0 q-6.5,0 -11.25-4.75t-4.75-11.25l0-32 q0-6.5 4.75-11.25t 11.25-4.75l 32,0 q 6.5,0 11.25,4.75t 4.75,11.25zM 96,176l0,32 q0,6.5 -4.75,11.25t-11.25,4.75l-32,0  q-6.5,0 -11.25-4.75t-4.75-11.25l0-32 q0-6.5 4.75-11.25t 11.25-4.75l 32,0 q 6.5,0 11.25,4.75t 4.75,11.25zM 352-16l0,128 q0,6.5 -4.75,11.25t-11.25,4.75l-192,0 q-6.5,0 -11.25-4.75t-4.75-11.25l0-128 q0-6.5 4.75-11.25t 11.25-4.75l 192,0 q 6.5,0 11.25,4.75t 4.75,11.25zM 96,272l0,32 q0,6.5 -4.75,11.25t-11.25,4.75l-32,0 q-6.5,0 -11.25-4.75t-4.75-11.25l0-32 q0-6.5 4.75-11.25 t 11.25-4.75l 32,0 q 6.5,0 11.25,4.75t 4.75,11.25zM 448-16l0,32 q0,6.5 -4.75,11.25t-11.25,4.75l-32,0 q-6.5,0 -11.25-4.75t-4.75-11.25l0-32 q0-6.5 4.75-11.25t 11.25-4.75l 32,0 q 6.5,0 11.25,4.75t 4.75,11.25zM 352,176l0,128 q0,6.5 -4.75,11.25t-11.25,4.75l-192,0 q-6.5,0 -11.25-4.75t-4.75-11.25l0-128 q0-6.5 4.75-11.25t 11.25-4.75l 192,0 q 6.5,0 11.25,4.75t 4.75,11.25zM 448,80l0,32  q0,6.5 -4.75,11.25t-11.25,4.75l-32,0 q-6.5,0 -11.25-4.75t-4.75-11.25l0-32 q0-6.5 4.75-11.25t 11.25-4.75l 32,0 q 6.5,0 11.25,4.75t 4.75,11.25zM 448,176l0,32 q0,6.5 -4.75,11.25t-11.25,4.75l-32,0 q-6.5,0 -11.25-4.75t-4.75-11.25l0-32 q0-6.5 4.75-11.25t 11.25-4.75l 32,0 q 6.5,0 11.25,4.75t 4.75,11.25zM 448,272l0,32 q0,6.5 -4.75,11.25t-11.25,4.75l-32,0 q-6.5,0 -11.25-4.75 t-4.75-11.25l0-32 q0-6.5 4.75-11.25t 11.25-4.75l 32,0 q 6.5,0 11.25,4.75t 4.75,11.25zM 480,312l0-336 q0-16.5 -11.75-28.25t-28.25-11.75l-400,0 q-16.5,0 -28.25,11.75t-11.75,28.25l0,336 q0,16.5 11.75,28.25t 28.25,11.75l 400,0 q 16.5,0 28.25-11.75t 11.75-28.25z" horiz-adv-x="480"  />
<glyph unicode="&#xf009;" d="M 192,128l0-96 q0-13 -9.5-22.5t-22.5-9.5l-128,0 q-13,0 -22.5,9.5t-9.5,22.5l0,96 q0,13 9.5,22.5t 22.5,9.5l 128,0 q 13,0 22.5-9.5t 9.5-22.5zM 192,320l0-96 q0-13 -9.5-22.5t-22.5-9.5l-128,0 q-13,0 -22.5,9.5t-9.5,22.5l0,96 q0,13 9.5,22.5t 22.5,9.5l 128,0 q 13,0 22.5-9.5t 9.5-22.5zM 416,128l0-96 q0-13 -9.5-22.5t-22.5-9.5 l-128,0 q-13,0 -22.5,9.5t-9.5,22.5l0,96 q0,13 9.5,22.5t 22.5,9.5l 128,0 q 13,0 22.5-9.5t 9.5-22.5zM 416,320l0-96 q0-13 -9.5-22.5t-22.5-9.5l-128,0 q-13,0 -22.5,9.5t-9.5,22.5l0,96 q0,13 9.5,22.5t 22.5,9.5l 128,0 q 13,0 22.5-9.5t 9.5-22.5z" horiz-adv-x="416"  />
<glyph unicode="&#xf00a;" d="M 128,72l0-48 q0-10 -7-17t-17-7l-80,0 q-10,0 -17,7t-7,17l0,48 q0,10 7,17t 17,7l 80,0 q 10,0 17-7t 7-17zM 128,200l0-48 q0-10 -7-17t-17-7l-80,0 q-10,0 -17,7t-7,17l0,48 q0,10 7,17t 17,7l 80,0 q 10,0 17-7t 7-17zM 288,72l0-48 q0-10 -7-17t-17-7l-80,0  q-10,0 -17,7t-7,17l0,48 q0,10 7,17t 17,7l 80,0 q 10,0 17-7t 7-17zM 128,328l0-48 q0-10 -7-17t-17-7l-80,0 q-10,0 -17,7t-7,17l0,48 q0,10 7,17t 17,7l 80,0 q 10,0 17-7t 7-17zM 288,200l0-48 q0-10 -7-17t-17-7l-80,0 q-10,0 -17,7t-7,17l0,48 q0,10 7,17t 17,7 l 80,0 q 10,0 17-7t 7-17zM 448,72l0-48 q0-10 -7-17t-17-7l-80,0 q-10,0 -17,7t-7,17l0,48 q0,10 7,17t 17,7l 80,0 q 10,0 17-7t 7-17zM 288,328l0-48 q0-10 -7-17t-17-7l-80,0 q-10,0 -17,7t-7,17l0,48 q0,10 7,17t 17,7l 80,0 q 10,0 17-7t 7-17zM 448,200l0-48  q0-10 -7-17t-17-7l-80,0 q-10,0 -17,7t-7,17l0,48 q0,10 7,17t 17,7l 80,0 q 10,0 17-7t 7-17zM 448,328l0-48 q0-10 -7-17t-17-7l-80,0 q-10,0 -17,7t-7,17l0,48 q0,10 7,17t 17,7l 80,0 q 10,0 17-7t 7-17z"  />
<glyph unicode="&#xf00b;" d="M 128,72l0-48 q0-10 -7-17t-17-7l-80,0 q-10,0 -17,7t-7,17l0,48 q0,10 7,17t 17,7l 80,0 q 10,0 17-7t 7-17zM 128,200l0-48 q0-10 -7-17t-17-7l-80,0 q-10,0 -17,7t-7,17l0,48 q0,10 7,17t 17,7l 80,0 q 10,0 17-7t 7-17zM 448,72l0-48 q0-10 -7-17t-17-7l-240,0  q-10,0 -17,7t-7,17l0,48 q0,10 7,17t 17,7l 240,0 q 10,0 17-7t 7-17zM 128,328l0-48 q0-10 -7-17t-17-7l-80,0 q-10,0 -17,7t-7,17l0,48 q0,10 7,17t 17,7l 80,0 q 10,0 17-7t 7-17zM 448,200l0-48 q0-10 -7-17t-17-7l-240,0 q-10,0 -17,7t-7,17l0,48 q0,10 7,17t 17,7 l 240,0 q 10,0 17-7t 7-17zM 448,328l0-48 q0-10 -7-17t-17-7l-240,0 q-10,0 -17,7t-7,17l0,48 q0,10 7,17t 17,7l 240,0 q 10,0 17-7t 7-17z"  />
<glyph unicode="&#xf00c;" d="M 417.75,242.5q0-10 -7-17l-181-181l-34-34q-7-7 -17-7t-17,7l-34,34l-90.5,90.5q-7,7 -7,17t 7,17l 34,34q 7,7 17,7t 17-7l 73.5-73.75l 164,164.25q 7,7 17,7t 17-7l 34-34q 7-7 7-17z"  />
<glyph unicode="&#xf00d;" d="M 324.5,53.5q0-10 -7-17l-34-34q-7-7 -17-7t-17,7l-73.5,73.5l-73.5-73.5q-7-7 -17-7t-17,7l-34,34q-7,7 -7,17t 7,17l 73.5,73.5l-73.5,73.5q-7,7 -7,17t 7,17l 34,34q 7,7 17,7t 17-7l 73.5-73.5l 73.5,73.5q 7,7 17,7t 17-7l 34-34q 7-7 7-17 t-7-17l-73.5-73.5l 73.5-73.5q 7-7 7-17z" horiz-adv-x="352"  />
<glyph unicode="&#xf00e;" d="M 256,184l0-16 q0-3.25 -2.375-5.625t-5.625-2.375l-56,0 l0-56 q0-3.25 -2.375-5.625t-5.625-2.375l-16,0 q-3.25,0 -5.625,2.375t-2.375,5.625l0,56 l-56,0 q-3.25,0 -5.625,2.375t-2.375,5.625l0,16 q0,3.25 2.375,5.625t 5.625,2.375l 56,0 l0,56 q0,3.25 2.375,5.625t 5.625,2.375l 16,0 q 3.25,0 5.625-2.375t 2.375-5.625l0-56 l 56,0  q 3.25,0 5.625-2.375t 2.375-5.625zM 288,176q0,46.25 -32.875,79.125t-79.125,32.875t-79.125-32.875t-32.875-79.125t 32.875-79.125t 79.125-32.875t 79.125,32.875t 32.875,79.125zM 416-32q0-13.25 -9.375-22.625t-22.625-9.375q-13.5,0 -22.5,9.5l-85.75,85.5q-44.75-31 -99.75-31q-35.75,0 -68.375,13.875 t-56.25,37.5t-37.5,56.25t-13.875,68.375t 13.875,68.375t 37.5,56.25t 56.25,37.5t 68.375,13.875t 68.375-13.875t 56.25-37.5t 37.5-56.25t 13.875-68.375q0-55 -31-99.75l 85.75-85.75q 9.25-9.25 9.25-22.5z" horiz-adv-x="416"  />
<glyph unicode="&#xf010;" d="M 256,184l0-16 q0-3.25 -2.375-5.625t-5.625-2.375l-144,0 q-3.25,0 -5.625,2.375t-2.375,5.625l0,16 q0,3.25 2.375,5.625t 5.625,2.375l 144,0 q 3.25,0 5.625-2.375t 2.375-5.625zM 288,176q0,46.25 -32.875,79.125t-79.125,32.875t-79.125-32.875t-32.875-79.125t 32.875-79.125t 79.125-32.875t 79.125,32.875t 32.875,79.125z M 416-32q0-13.25 -9.375-22.625t-22.625-9.375q-13.5,0 -22.5,9.5l-85.75,85.5q-44.75-31 -99.75-31q-35.75,0 -68.375,13.875t-56.25,37.5t-37.5,56.25t-13.875,68.375t 13.875,68.375t 37.5,56.25t 56.25,37.5t 68.375,13.875t 68.375-13.875t 56.25-37.5t 37.5-56.25t 13.875-68.375q0-55 -31-99.75l 85.75-85.75q 9.25-9.25 9.25-22.5z " horiz-adv-x="416"  />
<glyph unicode="&#xf011;" d="M 384,160q0-39 -15.25-74.5t-41-61.25t-61.25-41t-74.5-15.25t-74.5,15.25t-61.25,41t-41,61.25t-15.25,74.5q0,45.5 20.125,85.75t 56.625,67.5q 10.75,8 23.875,6.25t 20.875-12.5q 8-10.5 6.125-23.625t-12.375-21.125q-24.5-18.5 -37.875-45.25t-13.375-57q0-26 10.125-49.625t 27.375-40.875t 40.875-27.375 t 49.625-10.125t 49.625,10.125t 40.875,27.375t 27.375,40.875t 10.125,49.625q0,30.25 -13.375,57t-37.875,45.25q-10.5,8 -12.375,21.125t 6.125,23.625q 7.75,10.75 21,12.5t 23.75-6.25q 36.5-27.25 56.625-67.5t 20.125-85.75zM 224,352l0-160 q0-13 -9.5-22.5t-22.5-9.5t-22.5,9.5t-9.5,22.5l0,160 q0,13 9.5,22.5t 22.5,9.5t 22.5-9.5t 9.5-22.5z" horiz-adv-x="384"  />
<glyph unicode="&#xf012;" d="M 64,24l0-48 q0-3.5 -2.25-5.75t-5.75-2.25l-48,0 q-3.5,0 -5.75,2.25t-2.25,5.75l0,48 q0,3.5 2.25,5.75t 5.75,2.25l 48,0 q 3.5,0 5.75-2.25t 2.25-5.75zM 160,56l0-80 q0-3.5 -2.25-5.75t-5.75-2.25l-48,0 q-3.5,0 -5.75,2.25t-2.25,5.75l0,80 q0,3.5 2.25,5.75t 5.75,2.25l 48,0 q 3.5,0 5.75-2.25t 2.25-5.75zM 256,120l0-144 q0-3.5 -2.25-5.75t-5.75-2.25l-48,0 q-3.5,0 -5.75,2.25t-2.25,5.75 l0,144 q0,3.5 2.25,5.75t 5.75,2.25l 48,0 q 3.5,0 5.75-2.25t 2.25-5.75zM 352,216l0-240 q0-3.5 -2.25-5.75t-5.75-2.25l-48,0 q-3.5,0 -5.75,2.25t-2.25,5.75l0,240 q0,3.5 2.25,5.75t 5.75,2.25l 48,0 q 3.5,0 5.75-2.25t 2.25-5.75zM 448,344l0-368 q0-3.5 -2.25-5.75t-5.75-2.25l-48,0 q-3.5,0 -5.75,2.25t-2.25,5.75l0,368 q0,3.5 2.25,5.75t 5.75,2.25l 48,0 q 3.5,0 5.75-2.25t 2.25-5.75z"  />
<glyph unicode="&#xf013;" d="M 256,160q0,26.5 -18.75,45.25t-45.25,18.75t-45.25-18.75t-18.75-45.25t 18.75-45.25t 45.25-18.75t 45.25,18.75t 18.75,45.25zM 384,187.25l0-55.5 q0-3 -2-5.75t-5-3.25l-46.25-7q-4.75-13.5 -9.75-22.75q 8.75-12.5 26.75-34.5q 2.5-3 2.5-6.25t-2.25-5.75q-6.75-9.25 -24.75-27t-23.5-17.75q-3,0 -6.5,2.25l-34.5,27q-11-5.75 -22.75-9.5 q-4-34 -7.25-46.5q-1.75-7 -9-7l-55.5,0 q-3.5,0 -6.125,2.125t-2.875,5.375l-7,46q-12.25,4 -22.5,9.25l-35.25-26.75q-2.5-2.25 -6.25-2.25q-3.5,0 -6.25,2.75q-31.5,28.5 -41.25,42q-1.75,2.5 -1.75,5.75q0,3 2,5.75q 3.75,5.25 12.75,16.625t 13.5,17.625q-6.75,12.5 -10.25,24.75l-45.75,6.75q-3.25,0.5 -5.25,3.125t-2,5.875l0,55.5 q0,3 2,5.75t 4.75,3.25 l 46.5,7q 3.5,11.5 9.75,23q-10,14.25 -26.75,34.5q-2.5,3 -2.5,6q0,2.5 2.25,5.75q 6.5,9 24.625,26.875t 23.625,17.875q 3.25,0 6.5-2.5l 34.5-26.75q 11,5.75 22.75,9.5q 4,34 7.25,46.5q 1.75,7 9,7l 55.5,0 q 3.5,0 6.125-2.125t 2.875-5.375l 7-46q 12.25-4 22.5-9.25l 35.5,26.75q 2.25,2.25 6,2.25q 3.25,0 6.25-2.5q 32.25-29.75 41.25-42.5q 1.75-2 1.75-5.5 q0-3 -2-5.75q-3.75-5.25 -12.75-16.625t-13.5-17.625q 6.5-12.5 10.25-24.5l 45.75-7q 3.25-0.5 5.25-3.125t 2-5.875z" horiz-adv-x="384"  />
<glyph unicode="&#xf014;" d="M 128,200l0-144 q0-3.5 -2.25-5.75t-5.75-2.25l-16,0 q-3.5,0 -5.75,2.25t-2.25,5.75l0,144 q0,3.5 2.25,5.75t 5.75,2.25l 16,0 q 3.5,0 5.75-2.25t 2.25-5.75zM 192,200l0-144 q0-3.5 -2.25-5.75t-5.75-2.25l-16,0 q-3.5,0 -5.75,2.25t-2.25,5.75l0,144 q0,3.5 2.25,5.75t 5.75,2.25l 16,0 q 3.5,0 5.75-2.25t 2.25-5.75zM 256,200l0-144 q0-3.5 -2.25-5.75t-5.75-2.25l-16,0 q-3.5,0 -5.75,2.25t-2.25,5.75l0,144  q0,3.5 2.25,5.75t 5.75,2.25l 16,0 q 3.5,0 5.75-2.25t 2.25-5.75zM 288,19l0,237 l-224,0 l0-237 q0-5.5 1.75-10.125t 3.625-6.75t 2.625-2.125l 208,0 q 0.75,0 2.625,2.125t 3.625,6.75t 1.75,10.125zM 120,288l 112,0 l-12,29.25q-1.75,2.25 -4.25,2.75l-79.25,0 q-2.5-0.5 -4.25-2.75zM 352,280l0-16 q0-3.5 -2.25-5.75t-5.75-2.25l-24,0 l0-237 q0-20.75 -11.75-35.875t-28.25-15.125l-208,0  q-16.5,0 -28.25,14.625t-11.75,35.375l0,238 l-24,0 q-3.5,0 -5.75,2.25t-2.25,5.75l0,16 q0,3.5 2.25,5.75t 5.75,2.25l 77.25,0 l 17.5,41.75q 3.75,9.25 13.5,15.75t 19.75,6.5l 80,0 q 10,0 19.75-6.5t 13.5-15.75l 17.5-41.75l 77.25,0 q 3.5,0 5.75-2.25t 2.25-5.75z" horiz-adv-x="352"  />
<glyph unicode="&#xf015;" d="M 352,136l0-120 q0-6.5 -4.75-11.25t-11.25-4.75l-96,0 l0,96 l-64,0 l0-96 l-96,0 q-6.5,0 -11.25,4.75t-4.75,11.25l0,120 q0,0.25 0.125,0.75t 0.125,0.75l 143.75,118.5l 143.75-118.5q 0.25-0.5 0.25-1.5zM 407.75,153.25l-15.5-18.5q-2-2.25 -5.25-2.75l-0.75,0 q-3.25,0 -5.25,1.75l-173,144.25l-173-144.25q-3-2 -6-1.75q-3.25,0.5 -5.25,2.75l-15.5,18.5q-2,2.5 -1.75,5.875t 2.75,5.375 l 179.75,149.75q 8,6.5 19,6.5t 19-6.5l 61-51l0,48.75 q0,3.5 2.25,5.75t 5.75,2.25l 48,0 q 3.5,0 5.75-2.25t 2.25-5.75l0-102 l 54.75-45.5q 2.5-2 2.75-5.375t-1.75-5.875z" horiz-adv-x="416"  />
<glyph unicode="&#xf016;" d="M 32,0l 256,0 l0,192 l-104,0 q-10,0 -17,7t-7,17l0,104 l-128,0 l0-320 zM 192,224l 94,0 q-2.5,7.25 -5.5,10.25l-78.25,78.25q-3,3 -10.25,5.5l0-94 zM 320,216l0-224 q0-10 -7-17t-17-7l-272,0 q-10,0 -17,7t-7,17l0,336 q0,10 7,17t 17,7l 160,0 q 10,0 22-5t 19-12l 78-78q 7-7 12-19t 5-22z " horiz-adv-x="320"  />
<glyph unicode="&#xf017;" d="M 224,248l0-112 q0-3.5 -2.25-5.75t-5.75-2.25l-80,0 q-3.5,0 -5.75,2.25t-2.25,5.75l0,16 q0,3.5 2.25,5.75t 5.75,2.25l 56,0 l0,88 q0,3.5 2.25,5.75t 5.75,2.25l 16,0 q 3.5,0 5.75-2.25t 2.25-5.75zM 328,160q0,37 -18.25,68.25t-49.5,49.5t-68.25,18.25t-68.25-18.25t-49.5-49.5t-18.25-68.25t 18.25-68.25t 49.5-49.5t 68.25-18.25t 68.25,18.25t 49.5,49.5t 18.25,68.25zM 384,160 q0-52.25 -25.75-96.375t-69.875-69.875t-96.375-25.75t-96.375,25.75t-69.875,69.875t-25.75,96.375t 25.75,96.375t 69.875,69.875t 96.375,25.75t 96.375-25.75t 69.875-69.875t 25.75-96.375z" horiz-adv-x="384"  />
<glyph unicode="&#xf018;" d="M 277.75,135l0,1 l-6,80q-0.25,3.25 -2.75,5.625t-5.75,2.375l-46.5,0 q-3.25,0 -5.75-2.375t-2.75-5.625l-6-80l0-1 q-0.25-3 2-5t 5.25-2l 61,0 q 3,0 5.25,2t 2,5zM 467.5,18.25q0-18.25 -11.5-18.25l-176,0 q 3.25,0 5.5,2.375t 2,5.625l-5,64q-0.25,3.25 -2.75,5.625t-5.75,2.375l-68,0 q-3.25,0 -5.75-2.375t-2.75-5.625l-5-64 q-0.25-3.25 2-5.625t 5.5-2.375l-176,0 q-11.5,0 -11.5,18.25q0,13.5 6.5,29l 104.25,261q 2,4.75 6.5,8.25t 9.5,3.5l 84.75,0 q-3.25,0 -5.75-2.375t-2.75-5.625l-3.75-48q-0.25-3.5 2-5.75t 5.5-2.25l 41.5,0 q 3.25,0 5.5,2.25t 2,5.75l-3.75,48q-0.25,3.25 -2.75,5.625t-5.75,2.375l 84.75,0 q 5,0 9.5-3.5t 6.5-8.25l 104.25-261q 6.5-15.5 6.5-29z" horiz-adv-x="480"  />
<glyph unicode="&#xf019;" d="M 320,48q0,6.5 -4.75,11.25t-11.25,4.75t-11.25-4.75t-4.75-11.25t 4.75-11.25t 11.25-4.75t 11.25,4.75t 4.75,11.25zM 384,48q0,6.5 -4.75,11.25t-11.25,4.75t-11.25-4.75t-4.75-11.25t 4.75-11.25t 11.25-4.75t 11.25,4.75t 4.75,11.25zM 416,104l0-80 q0-10 -7-17t-17-7l-368,0 q-10,0 -17,7t-7,17l0,80 q0,10 7,17t 17,7l 116.25,0 l 33.75-34 q 14.5-14 34-14t 34,14l 34,34l 116,0 q 10,0 17-7t 7-17zM 334.75,246.25q 4.25-10.25 -3.5-17.5l-112-112q-4.5-4.75 -11.25-4.75t-11.25,4.75l-112,112q-7.75,7.25 -3.5,17.5q 4.25,9.75 14.75,9.75l 64,0 l0,112 q0,6.5 4.75,11.25t 11.25,4.75l 64,0 q 6.5,0 11.25-4.75t 4.75-11.25l0-112 l 64,0 q 10.5,0 14.75-9.75z" horiz-adv-x="416"  />
<glyph unicode="&#xf01a;" d="M 280,152q0-3 -2.5-6l-79.75-79.75q-2.75-2.25 -5.75-2.25t-5.75,2.25l-80,80q-3.75,4 -1.75,8.75q 2,5 7.5,5l 48,0 l0,88 q0,3.5 2.25,5.75t 5.75,2.25l 48,0 q 3.5,0 5.75-2.25t 2.25-5.75l0-88 l 48,0 q 3.5,0 5.75-2.25t 2.25-5.75zM 192,296q-37,0 -68.25-18.25t-49.5-49.5t-18.25-68.25t 18.25-68.25t 49.5-49.5t 68.25-18.25t 68.25,18.25t 49.5,49.5t 18.25,68.25 t-18.25,68.25t-49.5,49.5t-68.25,18.25zM 384,160q0-52.25 -25.75-96.375t-69.875-69.875t-96.375-25.75t-96.375,25.75t-69.875,69.875t-25.75,96.375t 25.75,96.375t 69.875,69.875t 96.375,25.75t 96.375-25.75t 69.875-69.875t 25.75-96.375z" horiz-adv-x="384"  />
<glyph unicode="&#xf01b;" d="M 279.5,165q-2-5 -7.5-5l-48,0 l0-88 q0-3.5 -2.25-5.75t-5.75-2.25l-48,0 q-3.5,0 -5.75,2.25t-2.25,5.75l0,88 l-48,0 q-3.5,0 -5.75,2.25t-2.25,5.75q0,3 2.5,6l 79.75,79.75q 2.75,2.25 5.75,2.25t 5.75-2.25l 80-80q 3.75-4 1.75-8.75zM 192,296q-37,0 -68.25-18.25t-49.5-49.5t-18.25-68.25t 18.25-68.25t 49.5-49.5t 68.25-18.25t 68.25,18.25t 49.5,49.5 t 18.25,68.25t-18.25,68.25t-49.5,49.5t-68.25,18.25zM 384,160q0-52.25 -25.75-96.375t-69.875-69.875t-96.375-25.75t-96.375,25.75t-69.875,69.875t-25.75,96.375t 25.75,96.375t 69.875,69.875t 96.375,25.75t 96.375-25.75t 69.875-69.875t 25.75-96.375z" horiz-adv-x="384"  />
<glyph unicode="&#xf01c;" d="M 255.75,144l 79,0 q-0.25,0.75 -0.625,2t-0.625,2l-53,124l-177,0 l-53-124q-0.25-0.5 -0.625-2t-0.625-2l 79,0 l 23.75-48l 80,0 zM 384,136.5l0-120.5 q0-6.5 -4.75-11.25t-11.25-4.75l-352,0 q-6.5,0 -11.25,4.75t-4.75,11.25l0,120.5 q0,15.5 6.25,30.75l 59.5,138q 2.5,6.25 9.125,10.5t 13.125,4.25l 208,0 q 6.5,0 13.125-4.25t 9.125-10.5l 59.5-138 q 6.25-15.25 6.25-30.75z" horiz-adv-x="384"  />
<glyph unicode="&#xf01d;" d="M 296,160q0-9.25 -8-13.75l-136-80q-3.75-2.25 -8-2.25q-4,0 -8,2q-8,4.75 -8,14l0,160 q0,9.25 8,14q 8.25,4.5 16-0.25l 136-80q 8-4.5 8-13.75zM 328,160q0,37 -18.25,68.25t-49.5,49.5t-68.25,18.25t-68.25-18.25t-49.5-49.5t-18.25-68.25t 18.25-68.25t 49.5-49.5t 68.25-18.25t 68.25,18.25t 49.5,49.5t 18.25,68.25zM 384,160 q0-52.25 -25.75-96.375t-69.875-69.875t-96.375-25.75t-96.375,25.75t-69.875,69.875t-25.75,96.375t 25.75,96.375t 69.875,69.875t 96.375,25.75t 96.375-25.75t 69.875-69.875t 25.75-96.375z" horiz-adv-x="384"  />
<glyph unicode="&#xf01e;" d="M 384,320l0-112 q0-6.5 -4.75-11.25t-11.25-4.75l-112,0 q-10.5,0 -14.75,10q-4.25,9.75 3.5,17.25l 34.5,34.5q-37,34.25 -87.25,34.25q-26,0 -49.625-10.125t-40.875-27.375t-27.375-40.875t-10.125-49.625t 10.125-49.625t 27.375-40.875t 40.875-27.375t 49.625-10.125q 29.75,0 56.25,13t 44.75,36.75q 1.75,2.5 5.75,3q 3.5,0 6.25-2.25 l 34.25-34.5q 2.25-2 2.375-5.125t-1.875-5.625q-27.25-33 -66-51.125t-81.75-18.125q-39,0 -74.5,15.25t-61.25,41t-41,61.25t-15.25,74.5t 15.25,74.5t 41,61.25t 61.25,41t 74.5,15.25q 36.75,0 71.125-13.875t 61.125-39.125l 32.5,32.25q 7.25,7.75 17.5,3.5q 9.75-4.25 9.75-14.75z" horiz-adv-x="384"  />
<glyph unicode="&#xf021;" d="M 377.75,120q0-1.25 -0.25-1.75q-16-67 -67-108.625t-119.5-41.625q-36.5,0 -70.625,13.75t-60.875,39.25l-32.25-32.25q-4.75-4.75 -11.25-4.75t-11.25,4.75t-4.75,11.25l0,112 q0,6.5 4.75,11.25t 11.25,4.75l 112,0 q 6.5,0 11.25-4.75t 4.75-11.25t-4.75-11.25l-34.25-34.25q 17.75-16.5 40.25-25.5t 46.75-9q 33.5,0 62.5,16.25t 46.5,44.75q 2.75,4.25 13.25,29.25 q 2,5.75 7.5,5.75l 48,0 q 3.25,0 5.625-2.375t 2.375-5.625zM 384,320l0-112 q0-6.5 -4.75-11.25t-11.25-4.75l-112,0 q-6.5,0 -11.25,4.75t-4.75,11.25t 4.75,11.25l 34.5,34.5q-37,34.25 -87.25,34.25q-33.5,0 -62.5-16.25t-46.5-44.75q-2.75-4.25 -13.25-29.25q-2-5.75 -7.5-5.75l-49.75,0 q-3.25,0 -5.625,2.375t-2.375,5.625l0,1.75 q 16.25,67 67.5,108.625t 120,41.625 q 36.5,0 71-13.875t 61.25-39.125l 32.5,32.25q 4.75,4.75 11.25,4.75t 11.25-4.75t 4.75-11.25z" horiz-adv-x="384"  />
<glyph unicode="&#xf022;" d="M 96,88l0-16 q0-3.25 -2.375-5.625t-5.625-2.375l-16,0 q-3.25,0 -5.625,2.375t-2.375,5.625l0,16 q0,3.25 2.375,5.625t 5.625,2.375l 16,0 q 3.25,0 5.625-2.375t 2.375-5.625zM 96,152l0-16 q0-3.25 -2.375-5.625t-5.625-2.375l-16,0 q-3.25,0 -5.625,2.375t-2.375,5.625l0,16 q0,3.25 2.375,5.625t 5.625,2.375l 16,0 q 3.25,0 5.625-2.375t 2.375-5.625z M 96,216l0-16 q0-3.25 -2.375-5.625t-5.625-2.375l-16,0 q-3.25,0 -5.625,2.375t-2.375,5.625l0,16 q0,3.25 2.375,5.625t 5.625,2.375l 16,0 q 3.25,0 5.625-2.375t 2.375-5.625zM 384,88l0-16 q0-3.25 -2.375-5.625t-5.625-2.375l-240,0 q-3.25,0 -5.625,2.375t-2.375,5.625l0,16 q0,3.25 2.375,5.625t 5.625,2.375l 240,0 q 3.25,0 5.625-2.375t 2.375-5.625z M 384,152l0-16 q0-3.25 -2.375-5.625t-5.625-2.375l-240,0 q-3.25,0 -5.625,2.375t-2.375,5.625l0,16 q0,3.25 2.375,5.625t 5.625,2.375l 240,0 q 3.25,0 5.625-2.375t 2.375-5.625zM 384,216l0-16 q0-3.25 -2.375-5.625t-5.625-2.375l-240,0 q-3.25,0 -5.625,2.375t-2.375,5.625l0,16 q0,3.25 2.375,5.625t 5.625,2.375l 240,0 q 3.25,0 5.625-2.375 t 2.375-5.625zM 416,40l0,208 q0,3.25 -2.375,5.625t-5.625,2.375l-368,0 q-3.25,0 -5.625-2.375t-2.375-5.625l0-208 q0-3.25 2.375-5.625t 5.625-2.375l 368,0 q 3.25,0 5.625,2.375t 2.375,5.625zM 448,312l0-272 q0-16.5 -11.75-28.25t-28.25-11.75l-368,0 q-16.5,0 -28.25,11.75t-11.75,28.25l0,272 q0,16.5 11.75,28.25t 28.25,11.75l 368,0 q 16.5,0 28.25-11.75 t 11.75-28.25z"  />
<glyph unicode="&#xf023;" d="M 80,192l 128,0 l0,48 q0,26.5 -18.75,45.25t-45.25,18.75t-45.25-18.75t-18.75-45.25l0-48 zM 288,168l0-144 q0-10 -7-17t-17-7l-240,0 q-10,0 -17,7t-7,17l0,144 q0,10 7,17t 17,7l 8,0 l0,48 q0,46 33,79t 79,33t 79-33t 33-79l0-48 l 8,0 q 10,0 17-7t 7-17z" horiz-adv-x="288"  />
<glyph unicode="&#xf024;" d="M 80,320q0-18 -16-27.5l0-316.5 q0-3.25 -2.375-5.625t-5.625-2.375l-16,0 q-3.25,0 -5.625,2.375t-2.375,5.625l0,316.5 q-16,9.5 -16,27.5q0,13.25 9.375,22.625t 22.625,9.375t 22.625-9.375t 9.375-22.625zM 448,304l0-190.75 q0-6.25 -3.125-9.625t-9.875-6.875q-53.75-29 -92.25-29q-15.25,0 -30.875,5.5t-27.125,12 t-28.875,12t-35.625,5.5q-48,0 -116-36.5q-4.25-2.25 -8.25-2.25q-6.5,0 -11.25,4.75t-4.75,11.25l0,185.5 q0,8 7.75,13.75q 5.25,3.5 19.75,10.75q 59,30 105.25,30q 26.75,0 50-7.25t 54.75-22q 9.5-4.75 22-4.75q 13.5,0 29.375,5.25t 27.5,11.75t 22,11.75t 13.625,5.25q 6.5,0 11.25-4.75t 4.75-11.25z"  />
<glyph unicode="&#xf025;" d="M 416,162.5q0-41.5 -15-78.5l-5-12.25l-46.25-8.25q-5.5-20.75 -22.625-34.125t-39.125-13.375l0-8 q0-3.5 -2.25-5.75t-5.75-2.25l-16,0 q-3.5,0 -5.75,2.25t-2.25,5.75l0,144 q0,3.5 2.25,5.75t 5.75,2.25l 16,0 q 3.5,0 5.75-2.25t 2.25-5.75l0-8 q 17.75,0 32.5-8.875t 23.25-23.875l 17,3q 7.25,23.75 7.25,48.25q0,37 -22,69.75t-59.125,52.25t-78.875,19.5 t-78.875-19.5t-59.125-52.25t-22-69.75q0-24.5 7.25-48.25l 17-3q 8.5,15 23.25,23.875t 32.5,8.875l0,8 q0,3.5 2.25,5.75t 5.75,2.25l 16,0 q 3.5,0 5.75-2.25t 2.25-5.75l0-144 q0-3.5 -2.25-5.75t-5.75-2.25l-16,0 q-3.5,0 -5.75,2.25t-2.25,5.75l0,8 q-22,0 -39.125,13.375t-22.625,34.125l-46.25,8.25l-5,12.25q-15,37 -15,78.5q0,37.75 16.75,72.75t 44.75,60.625 t 66.5,40.875t 80,15.25t 80-15.25t 66.5-40.875t 44.75-60.625t 16.75-72.75z" horiz-adv-x="416"  />
<glyph unicode="&#xf026;" d="M 192,296l0-272 q0-6.5 -4.75-11.25t-11.25-4.75t-11.25,4.75l-83.25,83.25l-65.5,0 q-6.5,0 -11.25,4.75t-4.75,11.25l0,96 q0,6.5 4.75,11.25t 11.25,4.75l 65.5,0 l 83.25,83.25q 4.75,4.75 11.25,4.75t 11.25-4.75t 4.75-11.25z" horiz-adv-x="192"  />
<glyph unicode="&#xf027;" d="M 192,296l0-272 q0-6.5 -4.75-11.25t-11.25-4.75t-11.25,4.75l-83.25,83.25l-65.5,0 q-6.5,0 -11.25,4.75t-4.75,11.25l0,96 q0,6.5 4.75,11.25t 11.25,4.75l 65.5,0 l 83.25,83.25q 4.75,4.75 11.25,4.75t 11.25-4.75t 4.75-11.25zM 288,160q0-19 -10.625-35.375t-28.125-23.375q-2.5-1.25 -6.25-1.25q-6.5,0 -11.25,4.625t-4.75,11.375q0,5.25 3,8.875t 7.25,6.25t 8.5,5.75t 7.25,8.875 t 3,14.25t-3,14.25t-7.25,8.875t-8.5,5.75t-7.25,6.25t-3,8.875q0,6.75 4.75,11.375t 11.25,4.625q 3.75,0 6.25-1.25q 17.5-6.75 28.125-23.25t 10.625-35.5z" horiz-adv-x="288"  />
<glyph unicode="&#xf028;" d="M 192,296l0-272 q0-6.5 -4.75-11.25t-11.25-4.75t-11.25,4.75l-83.25,83.25l-65.5,0 q-6.5,0 -11.25,4.75t-4.75,11.25l0,96 q0,6.5 4.75,11.25t 11.25,4.75l 65.5,0 l 83.25,83.25q 4.75,4.75 11.25,4.75t 11.25-4.75t 4.75-11.25zM 288,160q0-19 -10.625-35.375t-28.125-23.375q-2.5-1.25 -6.25-1.25q-6.5,0 -11.25,4.625t-4.75,11.375q0,5.25 3,8.875t 7.25,6.25t 8.5,5.75t 7.25,8.875 t 3,14.25t-3,14.25t-7.25,8.875t-8.5,5.75t-7.25,6.25t-3,8.875q0,6.75 4.75,11.375t 11.25,4.625q 3.75,0 6.25-1.25q 17.5-6.75 28.125-23.25t 10.625-35.5zM 352,160q0-38.25 -21.25-70.625t-56.25-47.125q-3.25-1.25 -6.25-1.25q-6.75,0 -11.5,4.75t-4.75,11.25q0,9.75 9.75,14.75q 14,7.25 19,11q 18.5,13.5 28.875,33.875t 10.375,43.375t-10.375,43.375 t-28.875,33.875q-5,3.75 -19,11q-9.75,5 -9.75,14.75q0,6.5 4.75,11.25t 11.25,4.75q 3.25,0 6.5-1.25q 35-14.75 56.25-47.125t 21.25-70.625zM 416,160q0-57.5 -31.75-105.625t-84.5-70.875q-3.25-1.25 -6.5-1.25q-6.5,0 -11.25,4.75t-4.75,11.25q0,9 9.75,14.75q 1.75,1 5.625,2.625t 5.625,2.625q 11.5,6.25 20.5,12.75q 30.75,22.75 48,56.75t 17.25,72.25t-17.25,72.25 t-48,56.75q-9,6.5 -20.5,12.75q-1.75,1 -5.625,2.625t-5.625,2.625q-9.75,5.75 -9.75,14.75q0,6.5 4.75,11.25t 11.25,4.75q 3.25,0 6.5-1.25q 52.75-22.75 84.5-70.875t 31.75-105.625z" horiz-adv-x="416"  />
<glyph unicode="&#xf029;" d="M 96,96l0-32 l-32,0 l0,32 l 32,0 zM 96,288l0-32 l-32,0 l0,32 l 32,0 zM 288,288l0-32 l-32,0 l0,32 l 32,0 zM 32,32.25l 96,0 l0,95.75 l-96,0 l0-95.75 zM 32,224l 96,0 l0,96 l-96,0 l0-96 zM 224,224l 96,0 l0,96 l-96,0 l0-96 zM 160,160l0-160 l-160,0 l0,160 l 160,0 zM 288,32l0-32 l-32,0 l0,32 l 32,0 zM 352,32l0-32 l-32,0 l0,32 l 32,0 z M 352,160l0-96 l-96,0 l0,32 l-32,0 l0-96 l-32,0 l0,160 l 96,0 l0-32 l 32,0 l0,32 l 32,0 zM 160,352l0-160 l-160,0 l0,160 l 160,0 zM 352,352l0-160 l-160,0 l0,160 l 160,0 z" horiz-adv-x="352"  />
<glyph unicode="&#xf02a;" d="M 15.75,0l-15.75,0 l0,352 l 15.75,0 l0-352 zM 31.5,0.25l-8,0 l0,351.75 l 8,0 l0-351.75 zM 55,0.25l-7.75,0 l0,351.75 l 7.75,0 l0-351.75 zM 94.25,0.25l-7.75,0 l0,351.75 l 7.75,0 l0-351.75 zM 133.5,0.25l-15.5,0 l0,351.75 l 15.5,0 l0-351.75 zM 165,0.25l-7.75,0 l0,351.75 l 7.75,0 l0-351.75 zM 180.75,0.25l-7.75,0 l0,351.75 l 7.75,0 l0-351.75 zM 196.5,0.25l-7.75,0 l0,351.75 l 7.75,0 l0-351.75 zM 235.75,0.25l-15.75,0 l0,351.75 l 15.75,0 l0-351.75 zM 275,0.25l-15.75,0 l0,351.75 l 15.75,0 l0-351.75 z M 306.5,0.25l-15.75,0 l0,351.75 l 15.75,0 l0-351.75 zM 338,0.25l-15.75,0 l0,351.75 l 15.75,0 l0-351.75 zM 361.5,0.25l-15.75,0 l0,351.75 l 15.75,0 l0-351.75 zM 408.75,0.25l-23.5,0 l0,351.75 l 23.5,0 l0-351.75 zM 424.5,0.25l-8,0 l0,351.75 l 8,0 l0-351.75 zM 448,0l-15.75,0 l0,352 l 15.75,0 l0-352 z"  />
<glyph unicode="&#xf02b;" d="M 112,272q0,13.25 -9.375,22.625t-22.625,9.375t-22.625-9.375t-9.375-22.625t 9.375-22.625t 22.625-9.375t 22.625,9.375t 9.375,22.625zM 378.75,128q0-13.25 -9.25-22.5l-122.75-123q-9.75-9.25 -22.75-9.25q-13.25,0 -22.5,9.25l-178.75,179q-9.5,9.25 -16.125,25.25t-6.625,29.25l0,104 q0,13 9.5,22.5t 22.5,9.5l 104,0 q 13.25,0 29.25-6.625t 25.5-16.125 l 178.75-178.5q 9.25-9.75 9.25-22.75z" horiz-adv-x="384"  />
<glyph unicode="&#xf02c;" d="M 112,272q0,13.25 -9.375,22.625t-22.625,9.375t-22.625-9.375t-9.375-22.625t 9.375-22.625t 22.625-9.375t 22.625,9.375t 9.375,22.625zM 378.75,128q0-13.25 -9.25-22.5l-122.75-123q-9.75-9.25 -22.75-9.25q-13.25,0 -22.5,9.25l-178.75,179q-9.5,9.25 -16.125,25.25t-6.625,29.25l0,104 q0,13 9.5,22.5t 22.5,9.5l 104,0 q 13.25,0 29.25-6.625t 25.5-16.125 l 178.75-178.5q 9.25-9.75 9.25-22.75zM 474.75,128q0-13.25 -9.25-22.5l-122.75-123q-9.75-9.25 -22.75-9.25q-9,0 -14.75,3.5t-13.25,11.25l 117.5,117.5q 9.25,9.25 9.25,22.5q0,13 -9.25,22.75l-178.75,178.5q-9.5,9.5 -25.5,16.125t-29.25,6.625l 56,0 q 13.25,0 29.25-6.625t 25.5-16.125l 178.75-178.5q 9.25-9.75 9.25-22.75z" horiz-adv-x="480"  />
<glyph unicode="&#xf02d;" d="M 409.75,264.5q 10-14.25 4.5-32.25l-68.75-226.5q-4.75-16 -19.125-26.875t-30.625-10.875l-230.75,0 q-19.25,0 -37.125,13.375t-24.875,32.875q-6,16.75 -0.5,31.75q0,1 0.75,6.75t 1,9.25q 0.25,2 -0.75,5.375t-0.75,4.875q 0.5,2.75 2,5.25t 4.125,5.875t 4.125,5.875q 5.75,9.5 11.25,22.875t 7.5,22.875q 0.75,2.5 0.125,7.5t-0.125,7q 0.75,2.75 4.25,7t 4.25,5.75 q 5.25,9 10.5,23t 6.25,22.5q 0.25,2.25 -0.625,8t 0.125,7q 1,3.25 5.5,7.625t 5.5,5.625q 4.75,6.5 10.625,21.125t 6.875,24.125q 0.25,2 -0.75,6.375t-0.5,6.625q 0.5,2 2.25,4.5t 4.5,5.75t 4.25,5.25q 2,3 4.125,7.625t 3.75,8.75t 4,9t 4.875,8t 6.625,5.875t 9,2.875t 11.875-1.375l-0.25-0.75q 9.5,2.25 12.75,2.25l 190.25,0 q 18.5,0 28.5-14t 4.5-32.5l-68.5-226.5 q-9-29.75 -17.875-38.375t-32.125-8.625l-217.25,0 q-6.75,0 -9.5-3.75q-2.75-4 -0.25-10.75q 6-17.5 36-17.5l 230.75,0 q 7.25,0 14,3.875t 8.75,10.375l 75,246.75q 1.75,5.5 1.25,14.25q 9.5-3.75 14.75-10.75zM 143.75,264q-1-3.25 0.5-5.625t 5-2.375l 152,0 q 3.25,0 6.375,2.375t 4.125,5.625l 5.25,16q 1,3.25 -0.5,5.625t-5,2.375l-152,0 q-3.25,0 -6.375-2.375 t-4.125-5.625zM 123,200q-1-3.25 0.5-5.625t 5-2.375l 152,0 q 3.25,0 6.375,2.375t 4.125,5.625l 5.25,16q 1,3.25 -0.5,5.625t-5,2.375l-152,0 q-3.25,0 -6.375-2.375t-4.125-5.625z" horiz-adv-x="416"  />
<glyph unicode="&#xf02e;" d="M 291,352q 5.75,0 11-2.25q 8.25-3.25 13.125-10.25t 4.875-15.5l0-322.25 q0-8.5 -4.875-15.5t-13.125-10.25q-4.75-2 -11-2q-12,0 -20.75,8l-110.25,106l-110.25-106q-9-8.25 -20.75-8.25q-5.75,0 -11,2.25q-8.25,3.25 -13.125,10.25t-4.875,15.5l0,322.25 q0,8.5 4.875,15.5t 13.125,10.25q 5.25,2.25 11,2.25l 262,0 z" horiz-adv-x="320"  />
<glyph unicode="&#xf02f;" d="M 96,0l 224,0 l0,64 l-224,0 l0-64 zM 96,160l 224,0 l0,96 l-40,0 q-10,0 -17,7t-7,17l0,40 l-160,0 l0-160 zM 384,144q0,6.5 -4.75,11.25t-11.25,4.75t-11.25-4.75t-4.75-11.25t 4.75-11.25t 11.25-4.75t 11.25,4.75t 4.75,11.25zM 416,144l0-104 q0-3.25 -2.375-5.625t-5.625-2.375l-56,0 l0-40 q0-10 -7-17t-17-7l-240,0 q-10,0 -17,7t-7,17 l0,40 l-56,0 q-3.25,0 -5.625,2.375t-2.375,5.625l0,104 q0,19.75 14.125,33.875t 33.875,14.125l 16,0 l0,136 q0,10 7,17t 17,7l 168,0 q 10,0 22-5t 19-12l 38-38q 7-7 12-19t 5-22l0-64 l 16,0 q 19.75,0 33.875-14.125t 14.125-33.875z" horiz-adv-x="416"  />
<glyph unicode="&#xf030;" d="M 240,216q 29.75,0 50.875-21.125t 21.125-50.875t-21.125-50.875t-50.875-21.125t-50.875,21.125t-21.125,50.875t 21.125,50.875t 50.875,21.125zM 416,320q 26.5,0 45.25-18.75t 18.75-45.25l0-224 q0-26.5 -18.75-45.25t-45.25-18.75l-352,0 q-26.5,0 -45.25,18.75t-18.75,45.25l0,224 q0,26.5 18.75,45.25t 45.25,18.75l 56,0 l 12.75,34 q 4.75,12.25 17.375,21.125t 25.875,8.875l 128,0 q 13.25,0 25.875-8.875t 17.375-21.125l 12.75-34l 56,0 zM 240,32q 46.25,0 79.125,32.875t 32.875,79.125t-32.875,79.125t-79.125,32.875t-79.125-32.875t-32.875-79.125t 32.875-79.125t 79.125-32.875z" horiz-adv-x="480"  />
<glyph unicode="&#xf031;" d="M 181.25,244.25l-42.5-112.5q 18.25-0.25 38.375-0.5t 29.75-0.375t 13.125-0.125l 7.25,0.5q-8,23.75 -23,60.25q-13.25,33 -23,52.75zM 5.25-32l-5.25,0 l 0.5,19.75q 5.5,1.75 20,4.5q 22.25,4 27.5,7.75q 5,4 12,17l 59.25,154l 70,181l 18.75,0 l 13.25,0 l 2.75-5.25l 51.25-120q 25.75-60.5 31-74.25q 9.75-25.5 24-58.75q 6.5-14.5 16.25-41q 6-16.75 16.25-37.25 q 5.5-12.25 8.75-14.25q 5.5-4.75 17.25-5.75q 11.75-1.5 25.75-6.75q 1.5-9.75 1.5-14.25q0-3.5 -0.25-6.5q-20,0 -48,2q-23.25,2 -47.25,2q-19.75,0 -33.75-0.5l-50-2.75l-14.5-0.5q0,11.25 1,19.5l 32.75,7q 14,3.25 17,5.75q 3,3 3,6.75t-1.5,8l-11.75,28.5l-23,57l-112.5,0.5q-7.25-16.25 -26-68.5q-5.75-16 -5.75-21q0-7.75 4.25-10.75 q 6.5-5.25 25.75-8q 0.75,0 3.375-0.5t 7.5-1.25t 10.125-1.5q 0.25-7 0.25-14.5q0-4.25 -0.5-6.75q-16.5,0 -87.25,5l-12-2q-20.25-3.5 -41.75-3.5z" horiz-adv-x="416"  />
<glyph unicode="&#xf032;" d="M 138.75,3.75q 19-8 35-8q 32.75,0 54,10.25t 30.5,28.25q 9.5,17.5 9.5,45.25q0,28.5 -10.25,45q-14.5,23.5 -35.25,31.5q-20,8 -61.75,8q-18.5,0 -25.25-2.5l0-36 l-0.25-43.25l 0.75-67.5q0-3.75 3-11zM 135.25,190.25q 10.75-1.75 27.25-1.75q 43.75,0 66,16.25t 22.25,56q0,28 -21.25,46.75q-21,18.75 -63.75,18.75q-13,0 -32.5-3.25q0-11 0.5-19.25 q 1.75-30.5 1.5-69.75l-0.25-24.5q0-10.75 0.25-19.25zM0-32l 0.5,23.5q 11.25,2.25 17,3q 19.25,3 30.75,7.75q 4.25,6.75 5.25,12.75q 2.25,16.5 2.25,48.5l-0.5,124.25q-1.25,64 -2.25,101q-0.25,21.75 -2.75,27.25q-0.25,1 -3,3q-4.5,3 -17.25,3.75q-7.5,0.5 -28.5,3.25l-1,20.75l 65,1.5l 95,3.25l 11.25,0.25q 1.25,0 3.5,0.125t 3.5,0.125q 0.25,0 5.375-0.125t 10.125-0.125l 18.5,0 q 22,0 47.75-6.75 q 10.75-3.25 24-9.75q 14.25-7.25 25.5-19q 11-11.75 16.25-26t 5.25-30.5q0-17.5 -8-32t-23.75-26.25q-6.5-5 -37.5-19.25q 44.25-10.25 66.75-36.5q 23-26.5 23-59q0-19 -7.25-40.25q-5.25-15.5 -17.75-29.25q-16.5-18 -35-27q-18.25-9 -50.75-15q-20.5-3.75 -49.5-2.75l-49.25,1q-21,0.5 -74.5-2.75q-8.25-0.75 -68-2.75z" horiz-adv-x="352"  />
<glyph unicode="&#xf033;" d="M0-31.5l 4.25,21.25q 1,0.25 19.25,5q 19,4.75 29,9.75q 7.25,9.25 10.25,25.25l 6.75,34.75l 14,67l 3,16q 2,11 4.25,21.125t 4,16.75t 3.125,11.625t 2.25,7.625t 0.875,2.875l 7.25,39.25l 4,15.75l 5.5,33.75l 2,12.5l0,9.5 q-10.25,5.5 -36,7q-7,0.5 -9.5,1l 4.75,25.75l 79.25-3.5q 9.75-0.5 18.25-0.5q 16.5,0 53.5,2.25q 8.25,0.5 17,1.125t 9,0.625q-0.5-4.75 -1.5-9.5 q-1.75-7.25 -3.25-12.75q-13.75-4.75 -27.25-7.75q-16-4 -25.25-7.75q-3-7.75 -6-22q-2.25-11 -3.25-20.5q-11-49.75 -16.5-76.5l-15.25-77.75l-9.5-39.5l-10.75-58.75l-3-11.25q-0.5-1.75 0.25-6.75q 16-3.75 29.75-5.25q 9-1.25 16.5-2.5q-0.25-7.25 -1.75-14.5q-1.75-7.75 -2.25-10.25q-4.5,0 -5.75-0.25q-6-0.5 -10.5-0.5q-2.25,0 -7,0.75q-4.75,1 -36.25,4.25 l-49.5,0.5q-10.25,0.25 -43.5-2.75q-18.5-1.75 -24.5-2.25z" horiz-adv-x="256"  />
<glyph unicode="&#xf034;" d="M 20.25,351.75l 13.5-6.75q 5-1.25 52.75-1.25l 32.5,0 l 4.75,0.75l 28.75,0.25l 53.75-0.25l 73.25,0 l 8.5-0.5q 3.5-0.25 7,1.75t 5.25,4l 1.75,2l 10.5,0.25q 3.75,0 7-0.25l0-26.125 t 0.25-32.875l 0.25-25l-0.25-14.5q0-8 -1-12.75q-9.75-3.75 -17-4.5q-6.25,10.75 -13.5,32q-2,6 -3.875,15.625t-2.875,16.375t-1.5,7.25q-3.25,3.75 -6.75,4.75q-1.75,0.5 -10.625,0.5t-25.875-0.25t-27.75-0.25 q-8.5,0 -16.75-1.25q-2.5-24.25 -2-34l 0.25-38l0-83 l 0.75-89.75l-0.25-36.75q-0.25-11.5 2.75-21.25q 12.25-6.25 22.25-8q 0.5,0 4.5-1.25t 11-3.25t 10.75-3q 7.5-2 12.5-4.5q 1.25-11.25 1.25-12.5q0-2.5 -0.75-7.25q-3.5-0.25 -8.5-0.25q-27.5,0 -46.75,2.5q-18,2 -59.5,2q-22,0 -58.25-3.5q-12-1 -17.5-1q-0.5,5.5 -0.5,6.5l-0.25,6.5l0,2.25 q 5.25,8.25 19.75,12.25 q 34.75,9.5 39.75,12.5q 2.25,5.25 3,14q 2,48 1.5,108.25l-1.25,107q-0.25,15.5 -0.125,29.625t 0.125,25.625t-0.5,14.25t-1.5,3.75q-1.5,1.25 -3.5,1.5q-9.5,1.5 -37,1.5q-10.75,0 -25-3.375t-18.25-6.125q-3.25-2.25 -5.5-8.25t-5.5-18.75t-6-21q-1.5-4.75 -4.875-8t-5.125-3.25q-11,6.75 -14,11l0,74.25 l0,21.5 zM 436,32q 8.25,0 10.5-4.625t-2.75-11.125 l-31.5-40.5q-5-6.5 -12.25-6.5t-12.25,6.5l-31.5,40.5q-5,6.5 -2.75,11.125t 10.5,4.625l 20,0 l0,256 l-20,0 q-8.25,0 -10.5,4.625t 2.75,11.125l 31.5,40.5q 5,6.5 12.25,6.5t 12.25-6.5l 31.5-40.5q 5-6.5 2.75-11.125t-10.5-4.625l-20,0 l0-256 l 20,0 z"  />
<glyph unicode="&#xf035;" d="M 20.25,351.75l 13.5-6.75q 5-1.25 52.75-1.25l 32.5,0 l 4.75,0.75l 28.75,0.25l 111.5-0.25l 79.5,0 l 8.5-0.5q 3.5-0.25 7,1.75t 5.25,4l 1.75,2l 10.5,0.25q 3.75,0 7-0.25l0-26.125 t 0.25-32.875l 0.25-25l-0.25-14.5q0-8 -1-12.75q-9.75-3.75 -17-4.5q-6.25,10.75 -13.5,32q-2,6 -3.875,15.625t-2.875,16.375t-1.5,7.25q-3.25,3.75 -6.75,4.75q-1.75,0.5 -14.625,0.5t-34.625-0.25t-32-0.25 q-23.5,0 -31.75-1.25q-2.5-24.25 -2-34l 0.25-38l0,13 l 0.75-89.75l-0.25-36.75q-0.25-11.5 2.75-21.25q 12.25-6.25 22.25-8q 0.5,0 4.5-1.25t 11-3.25t 10.75-3q 7.5-2 12.5-4.5q 1.25-11.25 1.25-12.5q0-2.5 -0.75-7.25q-3.5-0.25 -8.5-0.25q-27.5,0 -46.75,2.5q-18,2 -59.5,2q-20.5,0 -58.25-3.25q-11.25-1.25 -17.5-1.25q-0.5,5.5 -0.5,6.5l-0.25,6.5l0,2.25 q 5.25,8.25 19.75,12.25 q 34.75,9.5 39.75,12.5q 2.25,5.25 3,14q 1.5,34.25 1.5,108.25l-1.25,11q0,66.25 -0.5,69.5q-0.5,2.75 -1.5,3.75q-1.5,1.25 -3.5,1.5q-9.5,1.5 -37,1.5q-12.5,0 -42.125-3.5t-33.125-6q-3.25-2.25 -5.5-8.25t-5.5-18.75t-6-21q-1.5-4.75 -4.875-8t-5.125-3.25q-11,6.75 -14,11l0,74.25 l0,21.5 zM 376.25,28.25q 6.5-5 6.5-12.25t-6.5-12.25l-40.5-31.5 q-6.5-5 -11.125-2.75t-4.625,10.5l0,20 l-256,0 l0-20 q0-8.25 -4.625-10.5t-11.125,2.75l-40.5,31.5q-6.5,5 -6.5,12.25t 6.5,12.25l 40.5,31.5q 6.5,5 11.125,2.75t 4.625-10.5l0-20 l 256,0 l0,20 q0,8.25 4.625,10.5t 11.125-2.75z" horiz-adv-x="384"  />
<glyph unicode="&#xf036;" d="M 448,48l0-32 q0-6.5 -4.75-11.25t-11.25-4.75l-416,0 q-6.5,0 -11.25,4.75t-4.75,11.25l0,32 q0,6.5 4.75,11.25t 11.25,4.75l 416,0 q 6.5,0 11.25-4.75t 4.75-11.25zM 352,144l0-32 q0-6.5 -4.75-11.25t-11.25-4.75l-320,0 q-6.5,0 -11.25,4.75t-4.75,11.25l0,32 q0,6.5 4.75,11.25t 11.25,4.75l 320,0 q 6.5,0 11.25-4.75t 4.75-11.25zM 416,240l0-32 q0-6.5 -4.75-11.25 t-11.25-4.75l-384,0 q-6.5,0 -11.25,4.75t-4.75,11.25l0,32 q0,6.5 4.75,11.25t 11.25,4.75l 384,0 q 6.5,0 11.25-4.75t 4.75-11.25zM 320,336l0-32 q0-6.5 -4.75-11.25t-11.25-4.75l-288,0 q-6.5,0 -11.25,4.75t-4.75,11.25l0,32 q0,6.5 4.75,11.25t 11.25,4.75l 288,0 q 6.5,0 11.25-4.75t 4.75-11.25z"  />
<glyph unicode="&#xf037;" d="M 448,48l0-32 q0-6.5 -4.75-11.25t-11.25-4.75l-416,0 q-6.5,0 -11.25,4.75t-4.75,11.25l0,32 q0,6.5 4.75,11.25t 11.25,4.75l 416,0 q 6.5,0 11.25-4.75t 4.75-11.25zM 352,144l0-32 q0-6.5 -4.75-11.25t-11.25-4.75l-224,0 q-6.5,0 -11.25,4.75t-4.75,11.25l0,32 q0,6.5 4.75,11.25t 11.25,4.75l 224,0 q 6.5,0 11.25-4.75t 4.75-11.25zM 416,240l0-32 q0-6.5 -4.75-11.25t-11.25-4.75 l-352,0 q-6.5,0 -11.25,4.75t-4.75,11.25l0,32 q0,6.5 4.75,11.25t 11.25,4.75l 352,0 q 6.5,0 11.25-4.75t 4.75-11.25zM 320,336l0-32 q0-6.5 -4.75-11.25t-11.25-4.75l-160,0 q-6.5,0 -11.25,4.75t-4.75,11.25l0,32 q0,6.5 4.75,11.25t 11.25,4.75l 160,0 q 6.5,0 11.25-4.75t 4.75-11.25z"  />
<glyph unicode="&#xf038;" d="M 448,48l0-32 q0-6.5 -4.75-11.25t-11.25-4.75l-416,0 q-6.5,0 -11.25,4.75t-4.75,11.25l0,32 q0,6.5 4.75,11.25t 11.25,4.75l 416,0 q 6.5,0 11.25-4.75t 4.75-11.25zM 448,144l0-32 q0-6.5 -4.75-11.25t-11.25-4.75l-320,0 q-6.5,0 -11.25,4.75t-4.75,11.25l0,32 q0,6.5 4.75,11.25t 11.25,4.75l 320,0 q 6.5,0 11.25-4.75t 4.75-11.25zM 448,240l0-32 q0-6.5 -4.75-11.25 t-11.25-4.75l-384,0 q-6.5,0 -11.25,4.75t-4.75,11.25l0,32 q0,6.5 4.75,11.25t 11.25,4.75l 384,0 q 6.5,0 11.25-4.75t 4.75-11.25zM 448,336l0-32 q0-6.5 -4.75-11.25t-11.25-4.75l-288,0 q-6.5,0 -11.25,4.75t-4.75,11.25l0,32 q0,6.5 4.75,11.25t 11.25,4.75l 288,0 q 6.5,0 11.25-4.75t 4.75-11.25z"  />
<glyph unicode="&#xf039;" d="M 448,48l0-32 q0-6.5 -4.75-11.25t-11.25-4.75l-416,0 q-6.5,0 -11.25,4.75t-4.75,11.25l0,32 q0,6.5 4.75,11.25t 11.25,4.75l 416,0 q 6.5,0 11.25-4.75t 4.75-11.25zM 448,144l0-32 q0-6.5 -4.75-11.25t-11.25-4.75l-416,0 q-6.5,0 -11.25,4.75t-4.75,11.25l0,32 q0,6.5 4.75,11.25t 11.25,4.75l 416,0 q 6.5,0 11.25-4.75t 4.75-11.25zM 448,240l0-32 q0-6.5 -4.75-11.25 t-11.25-4.75l-416,0 q-6.5,0 -11.25,4.75t-4.75,11.25l0,32 q0,6.5 4.75,11.25t 11.25,4.75l 416,0 q 6.5,0 11.25-4.75t 4.75-11.25zM 448,336l0-32 q0-6.5 -4.75-11.25t-11.25-4.75l-416,0 q-6.5,0 -11.25,4.75t-4.75,11.25l0,32 q0,6.5 4.75,11.25t 11.25,4.75l 416,0 q 6.5,0 11.25-4.75t 4.75-11.25z"  />
<glyph unicode="&#xf03a;" d="M 64,56l0-48 q0-3.25 -2.375-5.625t-5.625-2.375l-48,0 q-3.25,0 -5.625,2.375t-2.375,5.625l0,48 q0,3.25 2.375,5.625t 5.625,2.375l 48,0 q 3.25,0 5.625-2.375t 2.375-5.625zM 64,152l0-48 q0-3.25 -2.375-5.625t-5.625-2.375l-48,0 q-3.25,0 -5.625,2.375t-2.375,5.625l0,48 q0,3.25 2.375,5.625t 5.625,2.375l 48,0 q 3.25,0 5.625-2.375 t 2.375-5.625zM 64,248l0-48 q0-3.25 -2.375-5.625t-5.625-2.375l-48,0 q-3.25,0 -5.625,2.375t-2.375,5.625l0,48 q0,3.25 2.375,5.625t 5.625,2.375l 48,0 q 3.25,0 5.625-2.375t 2.375-5.625zM 448,56l0-48 q0-3.25 -2.375-5.625t-5.625-2.375l-336,0 q-3.25,0 -5.625,2.375t-2.375,5.625l0,48 q0,3.25 2.375,5.625t 5.625,2.375l 336,0  q 3.25,0 5.625-2.375t 2.375-5.625zM 64,344l0-48 q0-3.25 -2.375-5.625t-5.625-2.375l-48,0 q-3.25,0 -5.625,2.375t-2.375,5.625l0,48 q0,3.25 2.375,5.625t 5.625,2.375l 48,0 q 3.25,0 5.625-2.375t 2.375-5.625zM 448,152l0-48 q0-3.25 -2.375-5.625t-5.625-2.375l-336,0 q-3.25,0 -5.625,2.375t-2.375,5.625l0,48 q0,3.25 2.375,5.625 t 5.625,2.375l 336,0 q 3.25,0 5.625-2.375t 2.375-5.625zM 448,248l0-48 q0-3.25 -2.375-5.625t-5.625-2.375l-336,0 q-3.25,0 -5.625,2.375t-2.375,5.625l0,48 q0,3.25 2.375,5.625t 5.625,2.375l 336,0 q 3.25,0 5.625-2.375t 2.375-5.625zM 448,344l0-48 q0-3.25 -2.375-5.625t-5.625-2.375l-336,0 q-3.25,0 -5.625,2.375t-2.375,5.625l0,48  q0,3.25 2.375,5.625t 5.625,2.375l 336,0 q 3.25,0 5.625-2.375t 2.375-5.625z"  />
<glyph unicode="&#xf03b;" d="M 96,248l0-144 q0-3.25 -2.375-5.625t-5.625-2.375q-3.5,0 -5.75,2.25l-72,72q-2.25,2.25 -2.25,5.75t 2.25,5.75l 72,72q 2.25,2.25 5.75,2.25q 3.25,0 5.625-2.375t 2.375-5.625zM 448,56l0-48 q0-3.25 -2.375-5.625t-5.625-2.375l-432,0 q-3.25,0 -5.625,2.375t-2.375,5.625l0,48 q0,3.25 2.375,5.625t 5.625,2.375l 432,0 q 3.25,0 5.625-2.375 t 2.375-5.625zM 448,152l0-48 q0-3.25 -2.375-5.625t-5.625-2.375l-272,0 q-3.25,0 -5.625,2.375t-2.375,5.625l0,48 q0,3.25 2.375,5.625t 5.625,2.375l 272,0 q 3.25,0 5.625-2.375t 2.375-5.625zM 448,248l0-48 q0-3.25 -2.375-5.625t-5.625-2.375l-272,0 q-3.25,0 -5.625,2.375t-2.375,5.625l0,48 q0,3.25 2.375,5.625t 5.625,2.375l 272,0  q 3.25,0 5.625-2.375t 2.375-5.625zM 448,344l0-48 q0-3.25 -2.375-5.625t-5.625-2.375l-432,0 q-3.25,0 -5.625,2.375t-2.375,5.625l0,48 q0,3.25 2.375,5.625t 5.625,2.375l 432,0 q 3.25,0 5.625-2.375t 2.375-5.625z"  />
<glyph unicode="&#xf03c;" d="M 88,176q0-3.5 -2.25-5.75l-72-72q-2.25-2.25 -5.75-2.25q-3.25,0 -5.625,2.375t-2.375,5.625l0,144 q0,3.25 2.375,5.625t 5.625,2.375q 3.5,0 5.75-2.25l 72-72q 2.25-2.25 2.25-5.75zM 448,56l0-48 q0-3.25 -2.375-5.625t-5.625-2.375l-432,0 q-3.25,0 -5.625,2.375t-2.375,5.625l0,48 q0,3.25 2.375,5.625t 5.625,2.375l 432,0 q 3.25,0 5.625-2.375 t 2.375-5.625zM 448,152l0-48 q0-3.25 -2.375-5.625t-5.625-2.375l-272,0 q-3.25,0 -5.625,2.375t-2.375,5.625l0,48 q0,3.25 2.375,5.625t 5.625,2.375l 272,0 q 3.25,0 5.625-2.375t 2.375-5.625zM 448,248l0-48 q0-3.25 -2.375-5.625t-5.625-2.375l-272,0 q-3.25,0 -5.625,2.375t-2.375,5.625l0,48 q0,3.25 2.375,5.625t 5.625,2.375l 272,0  q 3.25,0 5.625-2.375t 2.375-5.625zM 448,344l0-48 q0-3.25 -2.375-5.625t-5.625-2.375l-432,0 q-3.25,0 -5.625,2.375t-2.375,5.625l0,48 q0,3.25 2.375,5.625t 5.625,2.375l 432,0 q 3.25,0 5.625-2.375t 2.375-5.625z"  />
<glyph unicode="&#xf03d;" d="M 448,296l0-272 q0-10.5 -9.75-14.75q-3.25-1.25 -6.25-1.25q-6.75,0 -11.25,4.75l-100.75,100.75l0-41.5 q0-29.75 -21.125-50.875t-50.875-21.125l-176,0 q-29.75,0 -50.875,21.125t-21.125,50.875l0,176 q0,29.75 21.125,50.875t 50.875,21.125l 176,0 q 29.75,0 50.875-21.125t 21.125-50.875l0-41.25 l 100.75,100.5q 4.5,4.75 11.25,4.75q 3,0 6.25-1.25 q 9.75-4.25 9.75-14.75z"  />
<glyph unicode="&#xf03e;" d="M 160,240q0-20 -14-34t-34-14t-34,14t-14,34t 14,34t 34,14t 34-14t 14-34zM 416,144l0-112 l-352,0 l0,48 l 80,80l 40-40l 128,128zM 440,320l-400,0 q-3.25,0 -5.625-2.375t-2.375-5.625l0-304 q0-3.25 2.375-5.625t 5.625-2.375l 400,0 q 3.25,0 5.625,2.375t 2.375,5.625l0,304  q0,3.25 -2.375,5.625t-5.625,2.375zM 480,312l0-304 q0-16.5 -11.75-28.25t-28.25-11.75l-400,0 q-16.5,0 -28.25,11.75t-11.75,28.25l0,304 q0,16.5 11.75,28.25t 28.25,11.75l 400,0 q 16.5,0 28.25-11.75t 11.75-28.25z" horiz-adv-x="480"  />
<glyph unicode="&#xf040;" d="M 90.75,0l 22.75,22.75l-58.75,58.75l-22.75-22.75l0-26.75 l 32,0 l0-32 l 26.75,0 zM 221.5,232q0,5.5 -5.5,5.5q-2.5,0 -4.25-1.75l-135.5-135.5q-1.75-1.75 -1.75-4.25q0-5.5 5.5-5.5q 2.5,0 4.25,1.75l 135.5,135.5q 1.75,1.75 1.75,4.25zM 208,280l 104-104l-208-208l-104,0 l0,104 zM 378.75,256q0-13.25 -9.25-22.5l-41.5-41.5l-104,104l 41.5,41.25q 9,9.5 22.5,9.5 q 13.25,0 22.75-9.5l 58.75-58.5q 9.25-9.75 9.25-22.75z" horiz-adv-x="384"  />
<glyph unicode="&#xf041;" d="M 192,224q0,26.5 -18.75,45.25t-45.25,18.75t-45.25-18.75t-18.75-45.25t 18.75-45.25t 45.25-18.75t 45.25,18.75t 18.75,45.25zM 256,224q0-27.25 -8.25-44.75l-91-193.5q-4-8.25 -11.875-13t-16.875-4.75t-16.875,4.75t-11.625,13l-91.25,193.5q-8.25,17.5 -8.25,44.75q0,53 37.5,90.5t 90.5,37.5t 90.5-37.5t 37.5-90.5z" horiz-adv-x="256"  />
<glyph unicode="&#xf042;" d="M 192,24l0,272 q-37,0 -68.25-18.25t-49.5-49.5t-18.25-68.25t 18.25-68.25t 49.5-49.5t 68.25-18.25zM 384,160q0-52.25 -25.75-96.375t-69.875-69.875t-96.375-25.75t-96.375,25.75t-69.875,69.875t-25.75,96.375t 25.75,96.375t 69.875,69.875t 96.375,25.75t 96.375-25.75t 69.875-69.875t 25.75-96.375z" horiz-adv-x="384"  />
<glyph unicode="&#xf043;" d="M 128,96q0,9 -5,17.25q-0.25,0.25 -3.875,5.625t-6.375,9.5t-6.25,11t-5.25,12.625q-1,4 -5.25,4t-5.25-4q-1.75-5.75 -5.25-12.625t-6.25-11t-6.375-9.5t-3.875-5.625q-5-8.25 -5-17.25q0-13.25 9.375-22.625t 22.625-9.375t 22.625,9.375t 9.375,22.625zM 256,128q0-53 -37.5-90.5t-90.5-37.5t-90.5,37.5t-37.5,90.5 q0,36.25 20.25,68.75q 1.5,2.25 15.625,22.625t 25.25,37.75t 24.875,44.5t 20.75,50.375q 2.25,7.5 8.5,11.75t 12.75,4.25t 12.875-4.25t 8.375-11.75q 7-23.25 20.75-50.375t 24.875-44.5t 25.25-37.75t 15.625-22.625q 20.25-31.75 20.25-68.75z" horiz-adv-x="256"  />
<glyph unicode="&#xf044;" d="M 222,88l 29,29l-38,38l-29-29l0-14 l 24,0 l0-24 l 14,0 zM 332,268q-4,4 -8.25-0.25l-87.5-87.5q-4.25-4.25 -0.25-8.25t 8.25,0.25l 87.5,87.5q 4.25,4.25 0.25,8.25zM 352,119.5l0-47.5 q0-29.75 -21.125-50.875t-50.875-21.125l-208,0 q-29.75,0 -50.875,21.125t-21.125,50.875l0,208 q0,29.75 21.125,50.875t 50.875,21.125l 208,0  q 15.75,0 29.25-6.25q 3.75-1.75 4.5-5.75q 0.75-4.25 -2.25-7.25l-12.25-12.25q-3.5-3.5 -8-2q-5.75,1.5 -11.25,1.5l-208,0 q-16.5,0 -28.25-11.75t-11.75-28.25l0-208 q0-16.5 11.75-28.25t 28.25-11.75l 208,0 q 16.5,0 28.25,11.75t 11.75,28.25l0,31.5 q0,3.25 2.25,5.5l 16,16q 3.75,3.75 8.75,1.75t 5-7.25zM 328,304l 72-72l-168-168l-72,0 l0,72 zM 439,271l-23-23 l-72,72l 23,23q 7,7 17,7t 17-7l 38-38q 7-7 7-17t-7-17z"  />
<glyph unicode="&#xf045;" d="M 352,136.75l0-64.75 q0-29.75 -21.125-50.875t-50.875-21.125l-208,0 q-29.75,0 -50.875,21.125t-21.125,50.875l0,208 q0,29.75 21.125,50.875t 50.875,21.125l 63.75,0 l0,0 q 3.25,0 5.625-2.375t 2.375-5.625q0-6.75 -6.5-8q-19.25-6.5 -33.25-15q-2.5-1 -4-1l-28,0 q-16.5,0 -28.25-11.75t-11.75-28.25l0-208 q0-16.5 11.75-28.25t 28.25-11.75l 208,0  q 16.5,0 28.25,11.75t 11.75,28.25l0,53.5 q0,4.75 4.5,7.25q 7,3.25 13.5,9.25q 4,4 8.75,2q 5.25-2.25 5.25-7.25zM 411.25,260.75l-96-96q-4.5-4.75 -11.25-4.75q-3,0 -6.25,1.25q-9.75,4.25 -9.75,14.75l0,48 l-40,0 q-80.75,0 -109.5-32.75q-29.75-34.25 -18.5-118.25q 0.75-5.75 -5-8.5q-2-0.5 -3-0.5q-4,0 -6.5,3.25q-2.5,3.5 -5.25,7.75t-9.875,17.125t-12.375,24.875 t-9.625,28.5t-4.375,30.5q0,12.25 0.875,22.75t 3.5,22.5t 7,22t 11.75,20.375t 17.125,18.5t 23.625,15.375t 31.125,12.125t 39.875,7.625t 49.125,2.75l 40,0 l0,48 q0,10.5 9.75,14.75q 3.25,1.25 6.25,1.25q 6.5,0 11.25-4.75l 96-96q 4.75-4.75 4.75-11.25t-4.75-11.25z" horiz-adv-x="416"  />
<glyph unicode="&#xf046;" d="M 352,151.5l0-79.5 q0-29.75 -21.125-50.875t-50.875-21.125l-208,0 q-29.75,0 -50.875,21.125t-21.125,50.875l0,208 q0,29.75 21.125,50.875t 50.875,21.125l 208,0 q 15.75,0 29.25-6.25q 3.75-1.75 4.5-5.75q 0.75-4.25 -2.25-7.25l-12.25-12.25q-2.5-2.5 -5.75-2.5q-0.75,0 -2.25,0.5q-5.75,1.5 -11.25,1.5l-208,0 q-16.5,0 -28.25-11.75t-11.75-28.25l0-208  q0-16.5 11.75-28.25t 28.25-11.75l 208,0 q 16.5,0 28.25,11.75t 11.75,28.25l0,63.5 q0,3.25 2.25,5.5l 16,16q 2.5,2.5 5.75,2.5q 1.5,0 3-0.75q 5-2 5-7.25zM 409.75,273.75l-203.5-203.5q-6-6 -14.25-6t-14.25,6l-107.5,107.5q-6,6 -6,14.25t 6,14.25l 27.5,27.5q 6,6 14.25,6t 14.25-6l 65.75-65.75l 161.75,161.75q 6,6 14.25,6t 14.25-6l 27.5-27.5 q 6-6 6-14.25t-6-14.25z" horiz-adv-x="416"  />
<glyph unicode="&#xf047;" d="M 448,160q0-6.5 -4.75-11.25l-64-64q-4.75-4.75 -11.25-4.75t-11.25,4.75t-4.75,11.25l0,32 l-96,0 l0-96 l 32,0 q 6.5,0 11.25-4.75t 4.75-11.25t-4.75-11.25l-64-64q-4.75-4.75 -11.25-4.75t-11.25,4.75l-64,64q-4.75,4.75 -4.75,11.25t 4.75,11.25t 11.25,4.75l 32,0 l0,96 l-96,0 l0-32 q0-6.5 -4.75-11.25t-11.25-4.75t-11.25,4.75l-64,64q-4.75,4.75 -4.75,11.25 t 4.75,11.25l 64,64q 4.75,4.75 11.25,4.75t 11.25-4.75t 4.75-11.25l0-32 l 96,0 l0,96 l-32,0 q-6.5,0 -11.25,4.75t-4.75,11.25t 4.75,11.25l 64,64q 4.75,4.75 11.25,4.75t 11.25-4.75l 64-64q 4.75-4.75 4.75-11.25t-4.75-11.25t-11.25-4.75l-32,0 l0-96 l 96,0 l0,32 q0,6.5 4.75,11.25t 11.25,4.75t 11.25-4.75l 64-64q 4.75-4.75 4.75-11.25z"  />
<glyph unicode="&#xf048;" d="M 244.75,348.75q 4.75,4.75 8,3.25t 3.25-8l0-368 q0-6.5 -3.25-8t-8,3.25l-177.5,177.5q-2.25,2.25 -3.25,4.75l0-169.5 q0-6.5 -4.75-11.25t-11.25-4.75l-32,0 q-6.5,0 -11.25,4.75t-4.75,11.25l0,352 q0,6.5 4.75,11.25t 11.25,4.75l 32,0 q 6.5,0 11.25-4.75t 4.75-11.25l0-169.5 q 1,2.75 3.25,4.75z" horiz-adv-x="256"  />
<glyph unicode="&#xf049;" d="M 436.75,348.75q 4.75,4.75 8,3.25t 3.25-8l0-368 q0-6.5 -3.25-8t-8,3.25l-177.5,177.5q-2.25,2.25 -3.25,4.75l0-177.5 q0-6.5 -3.25-8t-8,3.25l-177.5,177.5q-2.25,2.25 -3.25,4.75l0-169.5 q0-6.5 -4.75-11.25t-11.25-4.75l-32,0 q-6.5,0 -11.25,4.75t-4.75,11.25l0,352 q0,6.5 4.75,11.25t 11.25,4.75l 32,0 q 6.5,0 11.25-4.75t 4.75-11.25l0-169.5 q 1,2.75 3.25,4.75l 177.5,177.5 q 4.75,4.75 8,3.25t 3.25-8l0-177.5 q 1,2.75 3.25,4.75z"  />
<glyph unicode="&#xf04a;" d="M 404.75,348.75q 4.75,4.75 8,3.25t 3.25-8l0-368 q0-6.5 -3.25-8t-8,3.25l-177.5,177.5q-2,2.25 -3.25,4.75l0-177.5 q0-6.5 -3.25-8t-8,3.25l-177.5,177.5q-4.75,4.75 -4.75,11.25t 4.75,11.25l 177.5,177.5q 4.75,4.75 8,3.25t 3.25-8l0-177.5 q 1.25,2.75 3.25,4.75z" horiz-adv-x="416"  />
<glyph unicode="&#xf04b;" d="M 346,152.25l-332-184.5q-5.75-3.25 -9.875-0.75t-4.125,9l0,368 q0,6.5 4.125,9t 9.875-0.75l 332-184.5q 5.75-3.25 5.75-7.75t-5.75-7.75z" horiz-adv-x="352"  />
<glyph unicode="&#xf04c;" d="M 384,336l0-352 q0-6.5 -4.75-11.25t-11.25-4.75l-128,0 q-6.5,0 -11.25,4.75t-4.75,11.25l0,352 q0,6.5 4.75,11.25t 11.25,4.75l 128,0 q 6.5,0 11.25-4.75t 4.75-11.25zM 160,336l0-352 q0-6.5 -4.75-11.25t-11.25-4.75l-128,0 q-6.5,0 -11.25,4.75t-4.75,11.25l0,352 q0,6.5 4.75,11.25t 11.25,4.75l 128,0 q 6.5,0 11.25-4.75t 4.75-11.25z" horiz-adv-x="384"  />
<glyph unicode="&#xf04d;" d="M 384,336l0-352 q0-6.5 -4.75-11.25t-11.25-4.75l-352,0 q-6.5,0 -11.25,4.75t-4.75,11.25l0,352 q0,6.5 4.75,11.25t 11.25,4.75l 352,0 q 6.5,0 11.25-4.75t 4.75-11.25z" horiz-adv-x="384"  />
<glyph unicode="&#xf04e;" d="M 11.25-28.75q-4.75-4.75 -8-3.25t-3.25,8l0,368 q0,6.5 3.25,8t 8-3.25l 177.5-177.5q 2-2 3.25-4.75l0,177.5 q0,6.5 3.25,8t 8-3.25l 177.5-177.5q 4.75-4.75 4.75-11.25t-4.75-11.25l-177.5-177.5q-4.75-4.75 -8-3.25t-3.25,8l0,177.5 q-1.25-2.5 -3.25-4.75z" horiz-adv-x="416"  />
<glyph unicode="&#xf050;" d="M 11.25-28.75q-4.75-4.75 -8-3.25t-3.25,8l0,368 q0,6.5 3.25,8t 8-3.25l 177.5-177.5q 2-2 3.25-4.75l0,177.5 q0,6.5 3.25,8t 8-3.25l 177.5-177.5q 2-2 3.25-4.75l0,169.5 q0,6.5 4.75,11.25t 11.25,4.75l 32,0 q 6.5,0 11.25-4.75t 4.75-11.25l0-352 q0-6.5 -4.75-11.25t-11.25-4.75l-32,0 q-6.5,0 -11.25,4.75t-4.75,11.25l0,169.5 q-1.25-2.5 -3.25-4.75l-177.5-177.5 q-4.75-4.75 -8-3.25t-3.25,8l0,177.5 q-1.25-2.5 -3.25-4.75z"  />
<glyph unicode="&#xf051;" d="M 11.25-28.75q-4.75-4.75 -8-3.25t-3.25,8l0,368 q0,6.5 3.25,8t 8-3.25l 177.5-177.5q 2-2 3.25-4.75l0,169.5 q0,6.5 4.75,11.25t 11.25,4.75l 32,0 q 6.5,0 11.25-4.75t 4.75-11.25l0-352 q0-6.5 -4.75-11.25t-11.25-4.75l-32,0 q-6.5,0 -11.25,4.75t-4.75,11.25l0,169.5 q-1.25-2.5 -3.25-4.75z" horiz-adv-x="256"  />
<glyph unicode="&#xf052;" d="M 3.5,139.25l 177.5,177.5q 4.75,4.75 11.25,4.75t 11.25-4.75l 177.5-177.5q 4.75-4.75 3.25-8t-8-3.25l-368,0 q-6.5,0 -8,3.25t 3.25,8zM 368.25,0l-352,0 q-6.5,0 -11.25,4.75t-4.75,11.25l0,64 q0,6.5 4.75,11.25t 11.25,4.75l 352,0 q 6.5,0 11.25-4.75t 4.75-11.25l0-64 q0-6.5 -4.75-11.25t-11.25-4.75z" horiz-adv-x="384.5"  />
<glyph unicode="&#xf053;" d="M 185.5-9.25l-163,162.75q-9.25,9.25 -9.25,22.625t 9.25,22.625l 163,162.75q 9.25,9.25 22.625,9.25t 22.625-9.25l 18.75-18.75q 9.25-9.25 9.25-22.625t-9.25-22.625l-121.5-121.5l 121.5-121.25q 9.25-9.5 9.25-22.75t-9.25-22.5l-18.75-18.75q-9.25-9.25 -22.625-9.25t-22.625,9.25z" horiz-adv-x="288"  />
<glyph unicode="&#xf054;" d="M 274.75,176q0-13 -9.25-22.75l-163-162.75q-9.25-9.25 -22.5-9.25t-22.5,9.25l-19,18.75q-9.25,9.75 -9.25,22.75q0,13.25 9.25,22.5l 121.5,121.5l-121.5,121.25q-9.25,9.75 -9.25,22.75q0,13.25 9.25,22.5l 19,18.75q 9,9.5 22.5,9.5t 22.5-9.5l 163-162.75q 9.25-9.25 9.25-22.5z" horiz-adv-x="288"  />
<glyph unicode="&#xf055;" d="M 304,144l0,32 q0,6.5 -4.75,11.25t-11.25,4.75l-64,0 l0,64 q0,6.5 -4.75,11.25t-11.25,4.75l-32,0 q-6.5,0 -11.25-4.75t-4.75-11.25l0-64 l-64,0 q-6.5,0 -11.25-4.75t-4.75-11.25l0-32 q0-6.5 4.75-11.25t 11.25-4.75l 64,0 l0-64 q0-6.5 4.75-11.25t 11.25-4.75l 32,0 q 6.5,0 11.25,4.75t 4.75,11.25l0,64 l 64,0 q 6.5,0 11.25,4.75t 4.75,11.25zM 384,160q0-52.25 -25.75-96.375 t-69.875-69.875t-96.375-25.75t-96.375,25.75t-69.875,69.875t-25.75,96.375t 25.75,96.375t 69.875,69.875t 96.375,25.75t 96.375-25.75t 69.875-69.875t 25.75-96.375z" horiz-adv-x="384"  />
<glyph unicode="&#xf056;" d="M 304,144l0,32 q0,6.5 -4.75,11.25t-11.25,4.75l-192,0 q-6.5,0 -11.25-4.75t-4.75-11.25l0-32 q0-6.5 4.75-11.25t 11.25-4.75l 192,0 q 6.5,0 11.25,4.75t 4.75,11.25zM 384,160q0-52.25 -25.75-96.375t-69.875-69.875t-96.375-25.75t-96.375,25.75t-69.875,69.875t-25.75,96.375t 25.75,96.375t 69.875,69.875t 96.375,25.75t 96.375-25.75t 69.875-69.875 t 25.75-96.375z" horiz-adv-x="384"  />
<glyph unicode="&#xf057;" d="M 287.25,103.5q0,6.5 -4.75,11.25l-45.25,45.25l 45.25,45.25q 4.75,4.75 4.75,11.25q0,6.75 -4.75,11.5l-22.5,22.5q-4.75,4.75 -11.5,4.75q-6.5,0 -11.25-4.75l-45.25-45.25l-45.25,45.25q-4.75,4.75 -11.25,4.75q-6.75,0 -11.5-4.75l-22.5-22.5q-4.75-4.75 -4.75-11.5q0-6.5 4.75-11.25l 45.25-45.25l-45.25-45.25q-4.75-4.75 -4.75-11.25q0-6.75 4.75-11.5l 22.5-22.5q 4.75-4.75 11.5-4.75 q 6.5,0 11.25,4.75l 45.25,45.25l 45.25-45.25q 4.75-4.75 11.25-4.75q 6.75,0 11.5,4.75l 22.5,22.5q 4.75,4.75 4.75,11.5zM 384,160q0-52.25 -25.75-96.375t-69.875-69.875t-96.375-25.75t-96.375,25.75t-69.875,69.875t-25.75,96.375t 25.75,96.375t 69.875,69.875t 96.375,25.75t 96.375-25.75t 69.875-69.875t 25.75-96.375z" horiz-adv-x="384"  />
<glyph unicode="&#xf058;" d="M 321,200.5q0,7 -4.5,11.5l-22.75,22.5q-4.75,4.75 -11.25,4.75t-11.25-4.75l-102-101.75l-56.5,56.5q-4.75,4.75 -11.25,4.75t-11.25-4.75l-22.75-22.5q-4.5-4.5 -4.5-11.5q0-6.75 4.5-11.25l 90.5-90.5q 4.75-4.75 11.25-4.75q 6.75,0 11.5,4.75l 135.75,135.75q 4.5,4.5 4.5,11.25zM 384,160q0-52.25 -25.75-96.375t-69.875-69.875t-96.375-25.75t-96.375,25.75 t-69.875,69.875t-25.75,96.375t 25.75,96.375t 69.875,69.875t 96.375,25.75t 96.375-25.75t 69.875-69.875t 25.75-96.375z" horiz-adv-x="384"  />
<glyph unicode="&#xf059;" d="M 224,40l0,48 q0,3.5 -2.25,5.75t-5.75,2.25l-48,0 q-3.5,0 -5.75-2.25t-2.25-5.75l0-48 q0-3.5 2.25-5.75t 5.75-2.25l 48,0 q 3.5,0 5.75,2.25t 2.25,5.75zM 288,208q0,22 -13.875,40.75t-34.625,29t-42.5,10.25q-60.75,0 -92.75-53.25q-3.75-6 2-10.5l 33-25q 1.75-1.5 4.75-1.5q 4,0 6.25,3q 13.25,17 21.5,23q 8.5,6 21.5,6q 12,0 21.375-6.5t 9.375-14.75 q0-9.5 -5-15.25t-17-11.25q-15.75-7 -28.875-21.625t-13.125-31.375l0-9 q0-3.5 2.25-5.75t 5.75-2.25l 48,0 q 3.5,0 5.75,2.25t 2.25,5.75q0,4.75 5.375,12.375t 13.625,12.375q 8,4.5 12.25,7.125t 11.5,8.75t 11.125,12t 7,15.125t 3.125,20.25zM 384,160q0-52.25 -25.75-96.375t-69.875-69.875t-96.375-25.75t-96.375,25.75t-69.875,69.875 t-25.75,96.375t 25.75,96.375t 69.875,69.875t 96.375,25.75t 96.375-25.75t 69.875-69.875t 25.75-96.375z" horiz-adv-x="384"  />
<glyph unicode="&#xf05a;" d="M 256,40l0,40 q0,3.5 -2.25,5.75t-5.75,2.25l-24,0 l0,128 q0,3.5 -2.25,5.75t-5.75,2.25l-80,0 q-3.5,0 -5.75-2.25t-2.25-5.75l0-40 q0-3.5 2.25-5.75t 5.75-2.25l 24,0 l0-80 l-24,0 q-3.5,0 -5.75-2.25t-2.25-5.75l0-40 q0-3.5 2.25-5.75t 5.75-2.25l 112,0 q 3.5,0 5.75,2.25t 2.25,5.75zM 224,264l0,40 q0,3.5 -2.25,5.75t-5.75,2.25l-48,0 q-3.5,0 -5.75-2.25t-2.25-5.75l0-40 q0-3.5 2.25-5.75 t 5.75-2.25l 48,0 q 3.5,0 5.75,2.25t 2.25,5.75zM 384,160q0-52.25 -25.75-96.375t-69.875-69.875t-96.375-25.75t-96.375,25.75t-69.875,69.875t-25.75,96.375t 25.75,96.375t 69.875,69.875t 96.375,25.75t 96.375-25.75t 69.875-69.875t 25.75-96.375z" horiz-adv-x="384"  />
<glyph unicode="&#xf05b;" d="M 299.25,128l-27.25,0 q-6.5,0 -11.25,4.75t-4.75,11.25l0,32 q0,6.5 4.75,11.25t 11.25,4.75l 27.25,0 q-8,27 -28.125,47.125t-47.125,28.125l0-27.25 q0-6.5 -4.75-11.25t-11.25-4.75l-32,0 q-6.5,0 -11.25,4.75t-4.75,11.25l0,27.25 q-27-8 -47.125-28.125t-28.125-47.125l 27.25,0 q 6.5,0 11.25-4.75t 4.75-11.25l0-32 q0-6.5 -4.75-11.25t-11.25-4.75l-27.25,0  q 8-27 28.125-47.125t 47.125-28.125l0,27.25 q0,6.5 4.75,11.25t 11.25,4.75l 32,0 q 6.5,0 11.25-4.75t 4.75-11.25l0-27.25 q 27,8 47.125,28.125t 28.125,47.125zM 384,176l0-32 q0-6.5 -4.75-11.25t-11.25-4.75l-35.75,0 q-9.25-40.25 -38.625-69.625t-69.625-38.625l0-35.75 q0-6.5 -4.75-11.25t-11.25-4.75l-32,0 q-6.5,0 -11.25,4.75t-4.75,11.25l0,35.75  q-40.25,9.25 -69.625,38.625t-38.625,69.625l-35.75,0 q-6.5,0 -11.25,4.75t-4.75,11.25l0,32 q0,6.5 4.75,11.25t 11.25,4.75l 35.75,0 q 9.25,40.25 38.625,69.625t 69.625,38.625l0,35.75 q0,6.5 4.75,11.25t 11.25,4.75l 32,0 q 6.5,0 11.25-4.75t 4.75-11.25l0-35.75 q 40.25-9.25 69.625-38.625t 38.625-69.625l 35.75,0 q 6.5,0 11.25-4.75t 4.75-11.25z" horiz-adv-x="384"  />
<glyph unicode="&#xf05c;" d="M 274.25,114.25l-36.5-36.5q-2.5-2.5 -5.75-2.5t-5.75,2.5l-34.25,34.25l-34.25-34.25q-2.5-2.5 -5.75-2.5t-5.75,2.5l-36.5,36.5q-2.5,2.5 -2.5,5.75t 2.5,5.75l 34.25,34.25l-34.25,34.25q-2.5,2.5 -2.5,5.75t 2.5,5.75l 36.5,36.5q 2.5,2.5 5.75,2.5t 5.75-2.5l 34.25-34.25l 34.25,34.25q 2.5,2.5 5.75,2.5t 5.75-2.5l 36.5-36.5q 2.5-2.5 2.5-5.75t-2.5-5.75 l-34.25-34.25l 34.25-34.25q 2.5-2.5 2.5-5.75t-2.5-5.75zM 328,160q0,37 -18.25,68.25t-49.5,49.5t-68.25,18.25t-68.25-18.25t-49.5-49.5t-18.25-68.25t 18.25-68.25t 49.5-49.5t 68.25-18.25t 68.25,18.25t 49.5,49.5t 18.25,68.25zM 384,160q0-52.25 -25.75-96.375t-69.875-69.875t-96.375-25.75t-96.375,25.75t-69.875,69.875t-25.75,96.375 t 25.75,96.375t 69.875,69.875t 96.375,25.75t 96.375-25.75t 69.875-69.875t 25.75-96.375z" horiz-adv-x="384"  />
<glyph unicode="&#xf05d;" d="M 292.75,180.75l-105.5-105.5q-4.75-4.75 -11.25-4.75t-11.25,4.75l-73.5,73.5q-4.75,4.75 -4.75,11.25t 4.75,11.25l 25.5,25.5q 4.75,4.75 11.25,4.75t 11.25-4.75l 36.75-36.75l 68.75,68.75q 4.75,4.75 11.25,4.75t 11.25-4.75l 25.5-25.5q 4.75-4.75 4.75-11.25t-4.75-11.25zM 328,160q0,37 -18.25,68.25t-49.5,49.5t-68.25,18.25t-68.25-18.25t-49.5-49.5t-18.25-68.25t 18.25-68.25t 49.5-49.5 t 68.25-18.25t 68.25,18.25t 49.5,49.5t 18.25,68.25zM 384,160q0-52.25 -25.75-96.375t-69.875-69.875t-96.375-25.75t-96.375,25.75t-69.875,69.875t-25.75,96.375t 25.75,96.375t 69.875,69.875t 96.375,25.75t 96.375-25.75t 69.875-69.875t 25.75-96.375z" horiz-adv-x="384"  />
<glyph unicode="&#xf05e;" d="M 328,160.75q0,40.25 -21.75,73.75l-188.5-188.25q 34.25-22.25 74.25-22.25q 27.75,0 52.875,10.875t 43.375,29.125t 29,43.625t 10.75,53.125zM 78.25,86l 188.75,188.5q-33.75,22.75 -75,22.75q-37,0 -68.25-18.25t-49.5-49.75t-18.25-68.5q0-40.5 22.25-74.75zM 384,160.75q0-39.25 -15.25-75t-40.875-61.5t-61.25-41t-74.625-15.25t-74.625,15.25 t-61.25,41t-40.875,61.5t-15.25,75t 15.25,74.875t 40.875,61.375t 61.25,41t 74.625,15.25t 74.625-15.25t 61.25-41t 40.875-61.375t 15.25-74.875z" horiz-adv-x="384"  />
<glyph unicode="&#xf060;" d="M 384,160l0-32 q0-13.25 -8.125-22.625t-21.125-9.375l-176,0 l 73.25-73.5q 9.5-9 9.5-22.5t-9.5-22.5l-18.75-19q-9.25-9.25 -22.5-9.25q-13,0 -22.75,9.25l-162.75,163q-9.25,9.25 -9.25,22.5q0,13 9.25,22.75l 162.75,162.5q 9.5,9.5 22.75,9.5q 13,0 22.5-9.5l 18.75-18.5q 9.5-9.5 9.5-22.75t-9.5-22.75l-73.25-73.25l 176,0 q 13,0 21.125-9.375 t 8.125-22.625z" horiz-adv-x="384"  />
<glyph unicode="&#xf061;" d="M 368,144q0-13.5 -9.25-22.75l-162.75-162.75q-9.75-9.25 -22.75-9.25q-12.75,0 -22.5,9.25l-18.75,18.75q-9.5,9.5 -9.5,22.75t 9.5,22.75l 73.25,73.25l-176,0 q-13,0 -21.125,9.375t-8.125,22.625l0,32 q0,13.25 8.125,22.625t 21.125,9.375l 176,0 l-73.25,73.5q-9.5,9 -9.5,22.5t 9.5,22.5l 18.75,18.75q 9.5,9.5 22.5,9.5q 13.25,0 22.75-9.5l 162.75-162.75q 9.25-8.75 9.25-22.5z" horiz-adv-x="384"  />
<glyph unicode="&#xf062;" d="M 402.75,141.25q0-12.75 -9.25-22.5l-18.75-18.75q-9.5-9.5 -22.75-9.5q-13.5,0 -22.5,9.5l-73.5,73.25l0-176 q0-13 -9.375-21.125t-22.625-8.125l-32,0 q-13.25,0 -22.625,8.125t-9.375,21.125l0,176 l-73.5-73.25q-9-9.5 -22.5-9.5t-22.5,9.5l-18.75,18.75q-9.5,9.5 -9.5,22.5q0,13.25 9.5,22.75l 162.75,162.75q 8.75,9.25 22.5,9.25q 13.5,0 22.75-9.25l 162.75-162.75 q 9.25-9.75 9.25-22.75z" horiz-adv-x="416"  />
<glyph unicode="&#xf063;" d="M 402.75,176q0-13.25 -9.25-22.5l-162.75-163q-9.75-9.25 -22.75-9.25q-13.25,0 -22.5,9.25l-162.75,163q-9.5,9 -9.5,22.5q0,13.25 9.5,22.75l 18.5,18.75q 9.75,9.25 22.75,9.25q 13.25,0 22.5-9.25l 73.5-73.5l0,176 q0,13 9.5,22.5t 22.5,9.5l 32,0 q 13,0 22.5-9.5t 9.5-22.5l0-176 l 73.5,73.5q 9.25,9.25 22.5,9.25q 13,0 22.75-9.25l 18.75-18.75q 9.25-9.75 9.25-22.75z" horiz-adv-x="416"  />
<glyph unicode="&#xf064;" d="M 448,224q0-6.5 -4.75-11.25l-128-128q-4.75-4.75 -11.25-4.75t-11.25,4.75t-4.75,11.25l0,64 l-56,0 q-24.5,0 -43.875-1.5t-38.5-5.375t-33.25-10.625t-26.375-17.375t-20-25.25t-12.125-34.625t-4.375-45.25q0-13.75 1.25-30.75q0-1.5 0.625-5.875t 0.625-6.625q0-3.75 -2.125-6.25t-5.875-2.5q-4,0 -7,4.25q-1.75,2.25 -3.25,5.5 t-3.375,7.5t-2.625,6q-31.75,71.25 -31.75,112.75q0,49.75 13.25,83.25q 40.5,100.75 218.75,100.75l 56,0 l0,64 q0,6.5 4.75,11.25t 11.25,4.75t 11.25-4.75l 128-128q 4.75-4.75 4.75-11.25z"  />
<glyph unicode="&#xf065;" d="M 188.75,120q0-3.25 -2.5-5.75l-83-83l 36-36q 4.75-4.75 4.75-11.25t-4.75-11.25t-11.25-4.75l-112,0 q-6.5,0 -11.25,4.75t-4.75,11.25l0,112 q0,6.5 4.75,11.25t 11.25,4.75t 11.25-4.75l 36-36l 83,83q 2.5,2.5 5.75,2.5t 5.75-2.5l 28.5-28.5q 2.5-2.5 2.5-5.75zM 384,336l0-112 q0-6.5 -4.75-11.25t-11.25-4.75t-11.25,4.75l-36,36l-83-83 q-2.5-2.5 -5.75-2.5t-5.75,2.5l-28.5,28.5q-2.5,2.5 -2.5,5.75t 2.5,5.75l 83,83l-36,36q-4.75,4.75 -4.75,11.25t 4.75,11.25t 11.25,4.75l 112,0 q 6.5,0 11.25-4.75t 4.75-11.25z" horiz-adv-x="384"  />
<glyph unicode="&#xf066;" d="M 192,144l0-112 q0-6.5 -4.75-11.25t-11.25-4.75t-11.25,4.75l-36,36l-83-83q-2.5-2.5 -5.75-2.5t-5.75,2.5l-28.5,28.5q-2.5,2.5 -2.5,5.75t 2.5,5.75l 83,83l-36,36q-4.75,4.75 -4.75,11.25t 4.75,11.25t 11.25,4.75l 112,0 q 6.5,0 11.25-4.75t 4.75-11.25zM 380.75,312q0-3.25 -2.5-5.75l-83-83l 36-36q 4.75-4.75 4.75-11.25t-4.75-11.25 t-11.25-4.75l-112,0 q-6.5,0 -11.25,4.75t-4.75,11.25l0,112 q0,6.5 4.75,11.25t 11.25,4.75t 11.25-4.75l 36-36l 83,83q 2.5,2.5 5.75,2.5t 5.75-2.5l 28.5-28.5q 2.5-2.5 2.5-5.75z" horiz-adv-x="384"  />
<glyph unicode="&#xf067;" d="M 352,200l0-48 q0-10 -7-17t-17-7l-104,0 l0-104 q0-10 -7-17t-17-7l-48,0 q-10,0 -17,7t-7,17l0,104 l-104,0 q-10,0 -17,7t-7,17l0,48 q0,10 7,17t 17,7l 104,0 l0,104 q0,10 7,17t 17,7l 48,0 q 10,0 17-7t 7-17l0-104 l 104,0 q 10,0 17-7t 7-17z" horiz-adv-x="352"  />
<glyph unicode="&#xf068;" d="M 352,200l0-48 q0-10 -7-17t-17-7l-304,0 q-10,0 -17,7t-7,17l0,48 q0,10 7,17t 17,7l 304,0 q 10,0 17-7t 7-17z" horiz-adv-x="352"  />
<glyph unicode="&#xf069;" d="M 370.5,121.5q 11.5-6.5 14.875-19.375t-3.125-24.375l-16-27.5q-6.5-11.5 -19.375-14.875t-24.375,3.125l-66.5,38.25l0-76.75 q0-13 -9.5-22.5t-22.5-9.5l-32,0 q-13,0 -22.5,9.5t-9.5,22.5l0,76.75 l-66.5-38.25q-11.5-6.5 -24.375-3.125t-19.375,14.875l-16,27.5q-6.5,11.5 -3.125,24.375t 14.875,19.375l 66.5,38.5l-66.5,38.5 q-11.5,6.5 -14.875,19.375t 3.125,24.375l 16,27.5q 6.5,11.5 19.375,14.875t 24.375-3.125l 66.5-38.25l0,76.75 q0,13 9.5,22.5t 22.5,9.5l 32,0 q 13,0 22.5-9.5t 9.5-22.5l0-76.75 l 66.5,38.25q 11.5,6.5 24.375,3.125t 19.375-14.875l 16-27.5q 6.5-11.5 3.125-24.375t-14.875-19.375l-66.5-38.5z" horiz-adv-x="416"  />
<glyph unicode="&#xf06a;" d="M 192,352q 52.25,0 96.375-25.75t 69.875-69.875t 25.75-96.375t-25.75-96.375t-69.875-69.875t-96.375-25.75t-96.375,25.75t-69.875,69.875t-25.75,96.375t 25.75,96.375t 69.875,69.875t 96.375,25.75zM 224,40.25l0,47.5 q0,3.5 -2.25,5.875t-5.5,2.375l-48,0 q-3.25,0 -5.75-2.5t-2.5-5.75l0-47.5 q0-3.25 2.5-5.75t 5.75-2.5l 48,0  q 3.25,0 5.5,2.375t 2.25,5.875zM 223.5,126.25l 4.5,155.25q0,3 -2.5,4.5q-2.5,2 -6,2l-55,0 q-3.5,0 -6-2q-2.5-1.5 -2.5-4.5l 4.25-155.25q0-2.5 2.5-4.375t 6-1.875l 46.25,0 q 3.5,0 5.875,1.875t 2.625,4.375z" horiz-adv-x="384"  />
<glyph unicode="&#xf06b;" d="M 232,45l0,14 l0,117 l0,48 l-80,0 l0-48 l0-117 l0-14 q0-6.25 4.5-9.625t 11.5-3.375l 48,0 q 7,0 11.5,3.375t 4.5,9.625zM 118,256l 48.75,0 l-31.5,40.25q-6.5,7.75 -17.25,7.75q-10,0 -17-7t-7-17t 7-17t 17-7zM 290,280q0,10 -7,17t-17,7q-10.75,0 -17.25-7.75l-31.25-40.25l 48.5,0 q 10,0 17,7t 7,17zM 384,216l0-80  q0-3.5 -2.25-5.75t-5.75-2.25l-24,0 l0-104 q0-10 -7-17t-17-7l-272,0 q-10,0 -17,7t-7,17l0,104 l-24,0 q-3.5,0 -5.75,2.25t-2.25,5.75l0,80 q0,3.5 2.25,5.75t 5.75,2.25l 110,0 q-23.25,0 -39.625,16.375t-16.375,39.625t 16.375,39.625t 39.625,16.375q 26.75,0 42-19.25l 32-41.25l 32,41.25q 15.25,19.25 42,19.25q 23.25,0 39.625-16.375t 16.375-39.625 t-16.375-39.625t-39.625-16.375l 110,0 q 3.5,0 5.75-2.25t 2.25-5.75z" horiz-adv-x="384"  />
<glyph unicode="&#xf06c;" d="M 320,208q0,6.5 -4.75,11.25t-11.25,4.75q-43,0 -79.5-12.375t-64.875-33.5t-58.875-54.875q-4.75-5.25 -4.75-11.25q0-6.5 4.75-11.25t 11.25-4.75q 6,0 11.25,4.75q 6.75,6 18.5,17.75t 16.75,16.5q 34.25,31 67.125,44t 78.375,13q 6.5,0 11.25,4.75t 4.75,11.25zM 448,257.5q0-23.75 -5-48.25q-11.5-56 -46.125-95.75t-89.375-67 q-53.5-27 -109.5-27q-37,0 -71.5,11.75q-3.75,1.25 -22,10.5t-24,9.25q-4,0 -9.875-8t-11.25-17.5t-13.125-17.5t-15-8q-7.5,0 -12.75,2.75t-7.75,6t-6.75,10.5q-0.5,1 -1.5,2.75t-1.375,2.5t-0.75,2.375t-0.375,3.375q0,8.75 7.75,18.375t 17,16.375t 17,14t 7.75,12q0,1 -3.5,9.5t-4,11q-2.25,12.75 -2.25,26q0,28.75 10.875,55t 29.75,46.125 t 42.625,34.75t 51,23.875q 13.75,4.5 36.25,6.375t 44.875,2.25t 44.625,1.5t 40.875,6t 28.375,14.125l 7.375,7.375t 7.375,7t 6.75,5t 9.125,4t 10.875,1.125q 9.75,0 17.625-11.5t 11.875-28t 6-31t 2-24z"  />
<glyph unicode="&#xf06d;" d="M 352-40l0-16 q0-3.25 -2.375-5.625t-5.625-2.375l-336,0 q-3.25,0 -5.625,2.375t-2.375,5.625l0,16 q0,3.25 2.375,5.625t 5.625,2.375l 336,0 q 3.25,0 5.625-2.375t 2.375-5.625zM 288,224q0-19.5 -6.125-36t-16-28.125t-21.875-22t-24-19.375t-21.875-18t-16-20.375t-6.125-24.125q0-24 16.75-56l-1,0.25l 0.25-0.25 q-22.5,10.25 -40,20.75t-34.625,25t-28.375,30.625t-18.125,37.625t-6.875,46q0,19.5 6.125,36t 16,28.125t 21.875,22t 24,19.375t 21.875,18t 16,20.375t 6.125,24.125q0,23.5 -16.5,56l 0.75-0.25l-0.25,0.25q 22.5-10.25 40-20.75t 34.625-25t 28.375-30.625t 18.125-37.625t 6.875-46z" horiz-adv-x="352"  />
<glyph unicode="&#xf06e;" d="M 416,144q-38,59 -95.25,88.25q 15.25-26 15.25-56.25q0-46.25 -32.875-79.125t-79.125-32.875t-79.125,32.875t-32.875,79.125q0,30.25 15.25,56.25q-57.25-29.25 -95.25-88.25q 33.25-51.25 83.375-81.625t 108.625-30.375t 108.625,30.375t 83.375,81.625zM 236,240q0,5 -3.5,8.5t-8.5,3.5q-31.25,0 -53.625-22.375 t-22.375-53.625q0-5 3.5-8.5t 8.5-3.5t 8.5,3.5t 3.5,8.5q0,21.5 15.25,36.75t 36.75,15.25q 5,0 8.5,3.5t 3.5,8.5zM 448,144q0-8.5 -5-17.25q-35-57.5 -94.125-92.125t-124.875-34.625t-124.875,34.75t-94.125,92q-5,8.75 -5,17.25t 5,17.25q 35,57.25 94.125,92t 124.875,34.75t 124.875-34.75t 94.125-92q 5-8.75 5-17.25z"  />
<glyph unicode="&#xf070;" d="M 138.75,50.25l 19.5,35.25q-21.75,15.75 -34,39.75t-12.25,50.75q0,30.25 15.25,56.25q-57.25-29.25 -95.25-88.25q 41.75-64.5 106.75-93.75zM 236,240q0,5 -3.5,8.5t-8.5,3.5q-31.25,0 -53.625-22.375t-22.375-53.625q0-5 3.5-8.5t 8.5-3.5t 8.5,3.5t 3.5,8.5q0,21.5 15.25,36.75t 36.75,15.25q 5,0 8.5,3.5t 3.5,8.5zM 326.75,287.75q0-1.75 -0.25-2.25 q-26.25-47 -78.75-141.5t-79-141.75l-12.25-22.25q-2.5-4 -7-4q-3,0 -33.5,17.5q-4,2.5 -4,7q0,3 11,21.75q-35.75,16.25 -65.875,43.25t-52.125,61.25q-5,7.75 -5,17.25t 5,17.25q 38.25,58.75 95,92.75t 124,34q 22.25,0 45-4.25l 13.5,24.25q 2.5,4 7,4q 1.25,0 4.5-1.5t 7.75-3.875t 8.25-4.625t 7.875-4.625t 4.875-2.875 q 4-2.5 4-6.75zM 336,176q0-34.75 -19.75-63.375t-52.25-41.125l 70,125.5q 2-11.25 2-21zM 448,144q0-8.75 -5-17.25q-9.75-16 -27.25-36.25q-37.5-43 -86.875-66.75t-104.875-23.75l 18.5,33q 53,4.5 98.125,34.25t 75.375,76.75q-28.75,44.75 -70.5,73.5l 15.75,28q 23.75-16 45.625-38.25t 36.125-46q 5-8.5 5-17.25z "  />
<glyph unicode="&#xf071;" d="M 256,40.25l0,47.5 q0,3.5 -2.375,5.875t-5.625,2.375l-48,0 q-3.25,0 -5.625-2.375t-2.375-5.875l0-47.5 q0-3.5 2.375-5.875t 5.625-2.375l 48,0 q 3.25,0 5.625,2.375t 2.375,5.875zM 255.5,133.75l 4.5,114.75q0,3 -2.5,4.75q-3.25,2.75 -6,2.75l-55,0 q-2.75,0 -6-2.75q-2.5-1.75 -2.5-5.25l 4.25-114.25q0-2.5 2.5-4.125t 6-1.625l 46.25,0  q 3.5,0 5.875,1.625t 2.625,4.125zM 252,367.25l 192-352q 8.75-15.75 -0.5-31.5q-4.25-7.25 -11.625-11.5t-15.875-4.25l-384,0 q-8.5,0 -15.875,4.25t-11.625,11.5q-9.25,15.75 -0.5,31.5l 192,352q 4.25,7.75 11.75,12.25t 16.25,4.5t 16.25-4.5t 11.75-12.25z"  />
<glyph unicode="&#xf072;" d="M 344,344q 11-13 3-37t-27-43l-40.25-40.25l 40-174q 1.25-4.75 -3-8.25l-32-24q-1.75-1.5 -4.75-1.5q-1,0 -1.75,0.25q-3.75,0.75 -5.25,4l-69.75,127l-64.75-64.75l 13.25-48.5q 1.25-4.25 -2-7.75l-24-24q-2.25-2.25 -5.75-2.25l-0.5,0 q-3.75,0.5 -6,3.25l-47.25,63l-63,47.25q-2.75,1.75 -3.25,5.75q-0.25,3.25 2.25,6.25l 24,24.25q 2.25,2.25 5.75,2.25 q 1.5,0 2-0.25l 48.5-13.25l 64.75,64.75l-127,69.75q-3.5,2 -4.25,6q-0.5,4 2.25,6.75l 32,32q 3.5,3.25 7.5,2l 166.25-39.75l 40,40q 19,19 43,27t 37-3z" horiz-adv-x="352"  />
<glyph unicode="&#xf073;" d="M 32-32l 72,0 l0,72 l-72,0 l0-72 zM 120-32l 80,0 l0,72 l-80,0 l0-72 zM 32,56l 72,0 l0,80 l-72,0 l0-80 zM 120,56l 80,0 l0,80 l-80,0 l0-80 zM 32,152l 72,0 l0,72 l-72,0 l0-72 zM 216-32l 80,0 l0,72 l-80,0 l0-72 zM 120,152l 80,0 l0,72 l-80,0 l0-72 zM 312-32l 72,0 l0,72 l-72,0 l0-72 zM 216,56l 80,0 l0,80 l-80,0 l0-80 z M 128,272l0,72 q0,3.25 -2.375,5.625t-5.625,2.375l-16,0 q-3.25,0 -5.625-2.375t-2.375-5.625l0-72 q0-3.25 2.375-5.625t 5.625-2.375l 16,0 q 3.25,0 5.625,2.375t 2.375,5.625zM 312,56l 72,0 l0,80 l-72,0 l0-80 zM 216,152l 80,0 l0,72 l-80,0 l0-72 zM 312,152l 72,0 l0,72 l-72,0 l0-72 zM 320,272l0,72 q0,3.25 -2.375,5.625t-5.625,2.375l-16,0  q-3.25,0 -5.625-2.375t-2.375-5.625l0-72 q0-3.25 2.375-5.625t 5.625-2.375l 16,0 q 3.25,0 5.625,2.375t 2.375,5.625zM 416,288l0-320 q0-13 -9.5-22.5t-22.5-9.5l-352,0 q-13,0 -22.5,9.5t-9.5,22.5l0,320 q0,13 9.5,22.5t 22.5,9.5l 32,0 l0,24 q0,16.5 11.75,28.25t 28.25,11.75l 16,0 q 16.5,0 28.25-11.75t 11.75-28.25l0-24 l 96,0 l0,24 q0,16.5 11.75,28.25t 28.25,11.75 l 16,0 q 16.5,0 28.25-11.75t 11.75-28.25l0-24 l 32,0 q 13,0 22.5-9.5t 9.5-22.5z" horiz-adv-x="416"  />
<glyph unicode="&#xf074;" d="M 166.5,263.75q-15-23 -34.25-68.25q-5.5,11.25 -9.25,18.125t-10.125,15.875t-12.75,14.125t-15.75,8.75t-20.375,3.625l-56,0 q-3.5,0 -5.75,2.25t-2.25,5.75l0,48 q0,3.5 2.25,5.75t 5.75,2.25l 56,0 q 62.5,0 102.5-56.25zM 448,64q0-3.5 -2.25-5.75l-80-80q-2.25-2.25 -5.75-2.25q-3.25,0 -5.625,2.375t-2.375,5.625l0,48 q-8,0 -21.25-0.125t-20.25-0.25t-18.25,0.25 t-17.75,1.25t-16,2.625t-15.75,4.625t-14.5,7.125t-14.75,10t-13.75,13.375t-14,17.375q 14.75,23.25 34,68.25q 5.5-11.25 9.25-18.125t 10.125-15.875t 12.75-14.125t 15.75-8.75t 20.375-3.625l 64,0 l0,48 q0,3.5 2.25,5.75t 5.75,2.25q 3,0 6-2.5l 79.75-79.75q 2.25-2.25 2.25-5.75zM 448,288q0-3.5 -2.25-5.75l-80-80q-2.25-2.25 -5.75-2.25q-3.25,0 -5.625,2.375t-2.375,5.625 l0,48 l-64,0 q-12,0 -21.75-3.75t-17.25-11.25t-12.75-15.375t-11.25-19.375q-8-15.5 -19.5-42.75q-7.25-16.5 -12.375-27.75t-13.5-26.25t-16-25t-18.5-20.75t-22.5-17.125t-26.625-10.5t-32-4.125l-56,0 q-3.5,0 -5.75,2.25t-2.25,5.75l0,48 q0,3.5 2.25,5.75t 5.75,2.25l 56,0 q 12,0 21.75,3.75t 17.25,11.25t 12.75,15.375t 11.25,19.375q 8,15.5 19.5,42.75q 7.25,16.5 12.375,27.75 t 13.5,26.25t 16,25t 18.5,20.75t 22.5,17.125t 26.625,10.5t 32,4.125l 64,0 l0,48 q0,3.5 2.25,5.75t 5.75,2.25q 3,0 6-2.5l 79.75-79.75q 2.25-2.25 2.25-5.75z"  />
<glyph unicode="&#xf075;" d="M 448,160q0-43.5 -30-80.375t-81.5-58.25t-112.5-21.375q-17.5,0 -36.25,2q-49.5-43.75 -115-60.5q-12.25-3.5 -28.5-5.5q-4.25-0.5 -7.625,2.25t-4.375,7.25l0,0.25 q-0.75,1 -0.125,3t 0.5,2.5t 1.125,2.375l 1.5,2.25t 1.75,2.125t 2,2.25q 1.75,2 7.75,8.625t 8.625,9.5t 7.75,9.875t 8.125,12.75t 6.75,14.75t 6.5,19q-39.25,22.25 -61.875,55t-22.625,70.25 q0,32.5 17.75,62.125t 47.75,51.125t 71.5,34.125t 87,12.625q 61,0 112.5-21.375t 81.5-58.25t 30-80.375z"  />
<glyph unicode="&#xf076;" d="M 384,176l0-32 q0-50.25 -24.625-90.5t-68.5-62.875t-98.875-22.625t-98.875,22.625t-68.5,62.875t-24.625,90.5l0,32 q0,6.5 4.75,11.25t 11.25,4.75l 96,0 q 6.5,0 11.25-4.75t 4.75-11.25l0-32 q0-13 5.875-22.5t 13.375-14.25t 17.75-7.5t 16-3.25t 11-0.5t 11,0.5t 16,3.25t 17.75,7.5t 13.375,14.25t 5.875,22.5l0,32 q0,6.5 4.75,11.25t 11.25,4.75l 96,0  q 6.5,0 11.25-4.75t 4.75-11.25zM 128,336l0-96 q0-6.5 -4.75-11.25t-11.25-4.75l-96,0 q-6.5,0 -11.25,4.75t-4.75,11.25l0,96 q0,6.5 4.75,11.25t 11.25,4.75l 96,0 q 6.5,0 11.25-4.75t 4.75-11.25zM 384,336l0-96 q0-6.5 -4.75-11.25t-11.25-4.75l-96,0 q-6.5,0 -11.25,4.75t-4.75,11.25l0,96 q0,6.5 4.75,11.25t 11.25,4.75l 96,0 q 6.5,0 11.25-4.75t 4.75-11.25z" horiz-adv-x="384"  />
<glyph unicode="&#xf077;" d="M 402.75,80q0-13.25 -9.25-22.5l-18.75-18.75q-9.5-9.5 -22.75-9.5q-13.5,0 -22.5,9.5l-121.5,121.25l-121.5-121.25q-9-9.5 -22.5-9.5t-22.5,9.5l-18.75,18.75q-9.5,9 -9.5,22.5q0,13.25 9.5,22.75l 162.75,162.75q 9.25,9.25 22.5,9.25q 13,0 22.75-9.25l 162.5-162.75q 9.5-9.5 9.5-22.75z" horiz-adv-x="416"  />
<glyph unicode="&#xf078;" d="M 402.75,208q0-13.25 -9.25-22.5l-162.75-162.75q-9.5-9.5 -22.75-9.5q-13.5,0 -22.5,9.5l-162.75,162.75q-9.5,9 -9.5,22.5q0,13.25 9.5,22.75l 18.5,18.75q 9.75,9.25 22.75,9.25q 13.25,0 22.5-9.25l 121.5-121.5l 121.5,121.5q 9.25,9.25 22.5,9.25q 13,0 22.75-9.25l 18.75-18.75q 9.25-9.75 9.25-22.75z" horiz-adv-x="416"  />
<glyph unicode="&#xf079;" d="M 320,8q0-3.25 -2.375-5.625t-5.625-2.375l-240,0 q-2,0 -3.375,0.5t-2.25,1.75t-1.375,2t-0.75,2.875t-0.25,2.875l0,3.25 l0,2.75 l0,40 l0,104 l-48,0 q-6.5,0 -11.25,4.75t-4.75,11.25q0,6 3.75,10.25l 80,96q 4.75,5.5 12.25,5.5t 12.25-5.5l 80-96q 3.75-4.25 3.75-10.25q0-6.5 -4.75-11.25t-11.25-4.75l-48,0 l0-96 l 144,0 q 4,0 6.25-2.75l 40-48q 1.75-2.75 1.75-5.25 zM 480,112q0-6 -3.75-10.25l-80-96q-5-5.75 -12.25-5.75t-12.25,5.75l-80,96q-3.75,4.25 -3.75,10.25q0,6.5 4.75,11.25t 11.25,4.75l 48,0 l0,96 l-144,0 q-4,0 -6.25,3l-40,48q-1.75,2.25 -1.75,5q0,3.25 2.375,5.625t 5.625,2.375l 240,0 q 2,0 3.375-0.5t 2.25-1.75t 1.375-2t 0.75-2.875t 0.25-2.875l0-3.25 l0-2.75 l0-40 l0-104 l 48,0 q 6.5,0 11.25-4.75t 4.75-11.25z " horiz-adv-x="480"  />
<glyph unicode="&#xf07a;" d="M 160,0q0-13.25 -9.375-22.625t-22.625-9.375t-22.625,9.375t-9.375,22.625t 9.375,22.625t 22.625,9.375t 22.625-9.375t 9.375-22.625zM 384,0q0-13.25 -9.375-22.625t-22.625-9.375t-22.625,9.375t-9.375,22.625t 9.375,22.625t 22.625,9.375t 22.625-9.375t 9.375-22.625zM 416,272l0-128 q0-6 -4-10.625t-10.25-5.375 l-261-30.5q 0.25-1.75 1.125-5.375t 1.5-6.625t 0.625-5.5q0-4 -6-16l 230,0 q 6.5,0 11.25-4.75t 4.75-11.25t-4.75-11.25t-11.25-4.75l-256,0 q-6.5,0 -11.25,4.75t-4.75,11.25q0,3.5 2.75,9.875t 7.375,14.875t 5.125,9.5l-44.25,205.75l-51,0 q-6.5,0 -11.25,4.75t-4.75,11.25t 4.75,11.25t 11.25,4.75l 64,0 q 4,0 7.125-1.625t 5-3.875t 3.25-6.125t 1.875-6.625 t 1.375-7.375t 1.125-6.375l 300.25,0 q 6.5,0 11.25-4.75t 4.75-11.25z" horiz-adv-x="416"  />
<glyph unicode="&#xf07b;" d="M 416,232l0-176 q0-23 -16.5-39.5t-39.5-16.5l-304,0 q-23,0 -39.5,16.5t-16.5,39.5l0,240 q0,23 16.5,39.5t 39.5,16.5l 80,0 q 23,0 39.5-16.5t 16.5-39.5l0-8 l 168,0 q 23,0 39.5-16.5t 16.5-39.5z" horiz-adv-x="416"  />
<glyph unicode="&#xf07c;" d="M 469.75,146q0-7.75 -7.75-16.5l-84-99q-10.75-12.75 -30.125-21.625t-35.875-8.875l-272,0 q-8.5,0 -15.125,3.25t-6.625,10.75q0,7.75 7.75,16.5l 84,99q 10.75,12.75 30.125,21.625t 35.875,8.875l 272,0 q 8.5,0 15.125-3.25t 6.625-10.75zM 384,232l0-40 l-208,0 q-23.5,0 -49.25-11.875t-41-29.875l-84.25-99l-1.25-1.5q0,1 -0.125,3.125 t-0.125,3.125l0,240 q0,23 16.5,39.5t 39.5,16.5l 80,0 q 23,0 39.5-16.5t 16.5-39.5l0-8 l 136,0 q 23,0 39.5-16.5t 16.5-39.5z" horiz-adv-x="480"  />
<glyph unicode="&#xf07d;" d="M 176,304q0-6.5 -4.75-11.25t-11.25-4.75l-32,0 l0-256 l 32,0 q 6.5,0 11.25-4.75t 4.75-11.25t-4.75-11.25l-64-64q-4.75-4.75 -11.25-4.75t-11.25,4.75l-64,64q-4.75,4.75 -4.75,11.25t 4.75,11.25t 11.25,4.75l 32,0 l0,256 l-32,0 q-6.5,0 -11.25,4.75t-4.75,11.25t 4.75,11.25l 64,64q 4.75,4.75 11.25,4.75t 11.25-4.75l 64-64q 4.75-4.75 4.75-11.25z" horiz-adv-x="192"  />
<glyph unicode="&#xf07e;" d="M 448,160q0-6.5 -4.75-11.25l-64-64q-4.75-4.75 -11.25-4.75t-11.25,4.75t-4.75,11.25l0,32 l-256,0 l0-32 q0-6.5 -4.75-11.25t-11.25-4.75t-11.25,4.75l-64,64q-4.75,4.75 -4.75,11.25t 4.75,11.25l 64,64q 4.75,4.75 11.25,4.75t 11.25-4.75t 4.75-11.25l0-32 l 256,0 l0,32 q0,6.5 4.75,11.25t 11.25,4.75t 11.25-4.75l 64-64q 4.75-4.75 4.75-11.25z"  />
<glyph unicode="&#xf080;" d="M 128,128l0-96 l-64,0 l0,96 l 64,0 zM 224,256l0-224 l-64,0 l0,224 l 64,0 zM 320,192l0-160 l-64,0 l0,160 l 64,0 zM 416,288l0-256 l-64,0 l0,256 l 64,0 zM 448,8l0,304 q0,3.25 -2.375,5.625t-5.625,2.375l-400,0 q-3.25,0 -5.625-2.375t-2.375-5.625l0-304 q0-3.25 2.375-5.625t 5.625-2.375l 400,0 q 3.25,0 5.625,2.375t 2.375,5.625z M 480,312l0-304 q0-16.5 -11.75-28.25t-28.25-11.75l-400,0 q-16.5,0 -28.25,11.75t-11.75,28.25l0,304 q0,16.5 11.75,28.25t 28.25,11.75l 400,0 q 16.5,0 28.25-11.75t 11.75-28.25z" horiz-adv-x="480"  />
<glyph unicode="&#xf081;" d="M 320,231.5q-14-6.25 -30.25-8.5q 17,10 23.25,29.25q-16.25-9.5 -33.5-12.75q-15.25,16.5 -38.25,16.5q-21.75,0 -37.125-15.375t-15.375-37.125q0-7.25 1.25-12q-32.25,1.75 -60.5,16.25t-48,38.75q-7.25-12.5 -7.25-26.5q0-28.5 22.75-43.75q-11.75,0.25 -25,6.5l0-0.5 q0-18.75 12.5-33.375t 30.75-18.125q-7.25-2 -12.75-2q-3.25,0 -9.75,1 q 5.25-15.75 18.625-26t 30.375-10.5q-29-22.5 -65.25-22.5q-6.5,0 -12.5,0.75q 37-23.5 80.5-23.5q 28,0 52.5,8.875t 42,23.75t 30.125,34.25t 18.75,40.5t 6.125,42.125q0,4.5 -0.25,6.75q 15.75,11.25 26.25,27.25zM 384,280l0-240 q0-29.75 -21.125-50.875t-50.875-21.125l-240,0 q-29.75,0 -50.875,21.125t-21.125,50.875l0,240 q0,29.75 21.125,50.875 t 50.875,21.125l 240,0 q 29.75,0 50.875-21.125t 21.125-50.875z" horiz-adv-x="384"  />
<glyph unicode="&#xf082;" d="M 326.75,154.5l 5.75,54.75l-49.5,0 l0,27.25 q0,12.25 3.875,17.125t 17.875,4.875l 27.5,0 l0,54.75 l-43.75,0 q-38,0 -54.5-18t-16.5-53.25l0-32.75 l-32.75,0 l0-54.75 l 32.75,0 l0-158.75 l 65.5,0 l0,158.75 l 43.75,0 zM 384,280l0-240 q0-29.75 -21.125-50.875t-50.875-21.125l-240,0 q-29.75,0 -50.875,21.125t-21.125,50.875l0,240 q0,29.75 21.125,50.875t 50.875,21.125l 240,0  q 29.75,0 50.875-21.125t 21.125-50.875z" horiz-adv-x="384"  />
<glyph unicode="&#xf083;" d="M 232,176q0,3.5 -2.25,5.75t-5.75,2.25q-16.5,0 -28.25-11.75t-11.75-28.25q0-3.5 2.25-5.75t 5.75-2.25t 5.75,2.25t 2.25,5.75q0,10 7,17t 17,7q 3.5,0 5.75,2.25t 2.25,5.75zM 288,143.5q0-26.5 -18.75-45.25t-45.25-18.75t-45.25,18.75t-18.75,45.25t 18.75,45.25t 45.25,18.75t 45.25-18.75t 18.75-45.25zM 32,0l 384,0 l0,32 l-384,0 l0-32 zM 320,143.5q0,39.75 -28.125,67.875 t-67.875,28.125t-67.875-28.125t-28.125-67.875t 28.125-67.875t 67.875-28.125t 67.875,28.125t 28.125,67.875zM 64,304l 96,0 l0,32 l-96,0 l0-32 zM 32,256l 384,0 l0,29.5 l0,34.5 l-207,0 l-16-32l-161,0 l0-32 zM 448,320l0-320 q0-13.25 -9.375-22.625t-22.625-9.375l-384,0 q-13.25,0 -22.625,9.375t-9.375,22.625l0,320  q0,13.25 9.375,22.625t 22.625,9.375l 384,0 q 13.25,0 22.625-9.375t 9.375-22.625z"  />
<glyph unicode="&#xf084;" d="M 208,256q0,20 -14,34t-34,14t-34-14t-14-34q0-10.5 4.75-20.75q-10.25,4.75 -20.75,4.75q-20,0 -34-14t-14-34t 14-34t 34-14t 34,14t 14,34q0,10.5 -4.75,20.75q 10.25-4.75 20.75-4.75q 20,0 34,14t 14,34zM 420.75,80q0-4.25 -12.25-16.5t-16.5-12.25q-2.25,0 -7.125,4t-9.125,8.25t-9.625,10t-6.125,6.5 l-24-24l 55-55q 7-7 7-17q0-10.5 -9.75-20.25t-20.25-9.75q-10,0 -17,7l-167.75,167.75q-44-32.75 -91.25-32.75q-40.75,0 -66.375,25.625t-25.625,66.375q0,40 23.75,78.25t 62,62t 78.25,23.75q 40.75,0 66.375-25.625t 25.625-66.375q0-47.25 -32.75-91.25l 88.75-88.75l 24,24q-0.75,0.75 -6.5,6.125t-10,9.625t-8.25,9.125 t-4,7.125q0,4.25 12.25,16.5t 16.5,12.25q 3.25,0 5.75-2.5q 1.5-1.5 11.5-11.125t 20.5-19.875t 21.625-21.5t 18.25-19.5t 7.125-10.25z"  />
<glyph unicode="&#xf085;" d="M 224,160q0,26.5 -18.75,45.25t-45.25,18.75t-45.25-18.75t-18.75-45.25t 18.75-45.25t 45.25-18.75t 45.25,18.75t 18.75,45.25zM 416,32q0,13 -9.5,22.5t-22.5,9.5t-22.5-9.5t-9.5-22.5q0-13.25 9.375-22.625t 22.625-9.375t 22.625,9.375t 9.375,22.625zM 416,288q0,13 -9.5,22.5t-22.5,9.5t-22.5-9.5t-9.5-22.5q0-13.25 9.375-22.625t 22.625-9.375 t 22.625,9.375t 9.375,22.625zM 320,182.75l0-46.25 q0-2.5 -1.75-4.875t-4-2.625l-38.75-6q-2.75-8.75 -8-19q 8.5-12 22.5-28.75q 1.75-2.5 1.75-5q0-3 -1.75-4.75q-5.75-7.5 -20.625-22.375t-19.625-14.875q-2.75,0 -5.25,1.75l-28.75,22.5q-9.25-4.75 -19.25-7.75q-2.75-27 -5.75-38.75q-1.75-6 -7.5-6l-46.5,0 q-2.75,0 -5,1.875t-2.5,4.375 l-5.75,38.25q-8.5,2.5 -18.75,7.75l-29.5-22.25q-1.75-1.75 -5-1.75q-2.75,0 -5.25,2q-36,33.25 -36,40q0,2.25 1.75,4.75q 2.5,3.5 10.25,13.25t 11.75,15.25q-5.75,11 -8.75,20.5l-38,6q-2.5,0.25 -4.25,2.375t-1.75,4.875l0,46.25 q0,2.5 1.75,4.875t 4,2.625l 38.75,6q 2.75,8.75 8,19q-8.5,12 -22.5,28.75q-1.75,2.75 -1.75,5q0,3 1.75,5q 5.5,7.5 20.5,22.25t 19.75,14.75q 2.75,0 5.25-1.75 l 28.75-22.5q 8.5,4.5 19.25,8q 2.75,27 5.75,38.5q 1.75,6 7.5,6l 46.5,0 q 2.75,0 5-1.875t 2.5-4.375l 5.75-38.25q 8.5-2.5 18.75-7.75l 29.5,22.25q 2,1.75 5,1.75q 2.75,0 5.25-2q 36-33.25 36-40q0-2.25 -1.75-4.75q-3-4 -10.5-13.5t-11.25-15q 5.75-12 8.5-20.5l 38-5.75q 2.5-0.5 4.25-2.625t 1.75-4.875zM 480,49.5l0-35 q0-4 -37.25-7.75 q-3-6.75 -7.5-13q 12.75-28.25 12.75-34.5q0-1 -1-1.75q-30.5-17.75 -31-17.75q-2,0 -11.5,11.75t-13,17q-5-0.5 -7.5-0.5t-7.5,0.5q-3.5-5.25 -13-17t-11.5-11.75q-0.5,0 -31,17.75q-1,0.75 -1,1.75q0,6.25 12.75,34.5q-4.5,6.25 -7.5,13q-37.25,3.75 -37.25,7.75l0,35 q0,4 37.25,7.75q 3.25,7.25 7.5,13q-12.75,28.25 -12.75,34.5q0,1 1,1.75q 1,0.5 8.75,5 t 14.75,8.5t 7.5,4q 2,0 11.5-11.625t 13-16.875q 5,0.5 7.5,0.5t 7.5-0.5q 12.75,17.75 23,28l 1.5,0.5q 1,0 31-17.5q 1-0.75 1-1.75q0-6.25 -12.75-34.5q 4.25-5.75 7.5-13q 37.25-3.75 37.25-7.75zM 480,305.5l0-35 q0-4 -37.25-7.75q-3-6.75 -7.5-13q 12.75-28.25 12.75-34.5q0-1 -1-1.75q-30.5-17.75 -31-17.75q-2,0 -11.5,11.75t-13,17 q-5-0.5 -7.5-0.5t-7.5,0.5q-3.5-5.25 -13-17t-11.5-11.75q-0.5,0 -31,17.75q-1,0.75 -1,1.75q0,6.25 12.75,34.5q-4.5,6.25 -7.5,13q-37.25,3.75 -37.25,7.75l0,35 q0,4 37.25,7.75q 3.25,7.25 7.5,13q-12.75,28.25 -12.75,34.5q0,1 1,1.75q 1,0.5 8.75,5t 14.75,8.5t 7.5,4q 2,0 11.5-11.625t 13-16.875q 5,0.5 7.5,0.5t 7.5-0.5q 12.75,17.75 23,28l 1.5,0.5q 1,0 31-17.5 q 1-0.75 1-1.75q0-6.25 -12.75-34.5q 4.25-5.75 7.5-13q 37.25-3.75 37.25-7.75z" horiz-adv-x="480"  />
<glyph unicode="&#xf086;" d="M 352,192q0-34.75 -23.5-64.25t-64.125-46.625t-88.375-17.125q-21.5,0 -44,4q-31-22 -69.5-32q-9-2.25 -21.5-4l-0.75,0 q-2.75,0 -5.125,2t-2.875,5.25q-0.25,0.75 -0.25,1.625t 0.125,1.625t 0.5,1.5l 0.625,1.25t 0.875,1.375t 1,1.25t 1.125,1.25t 1,1.125q 1.25,1.5 5.75,6.25t 6.5,7.375t 5.625,7.25t 6.25,9.625t 5.125,11q-31,18 -48.75,44.25t-17.75,56 q0,34.75 23.5,64.25t 64.125,46.625t 88.375,17.125t 88.375-17.125t 64.125-46.625t 23.5-64.25zM 448,128q0-30 -17.75-56.125t-48.75-44.125q 2.5-6 5.125-11t 6.25-9.625t 5.625-7.25t 6.5-7.375t 5.75-6.25q 0.25-0.25 1-1.125t 1.125-1.25t 1-1.25t 0.875-1.375l 0.625-1.25t 0.5-1.5t 0.125-1.625t-0.25-1.625q-0.75-3.5 -3.25-5.5t-5.5-1.75 q-12.5,1.75 -21.5,4q-38.5,10 -69.5,32q-22.5-4 -44-4q-67.75,0 -118,33q 14.5-1 22-1q 40.25,0 77.25,11.25t 66,32.25q 31.25,23 48,53t 16.75,63.5q0,19.25 -5.75,38q 32.25-17.75 51-44.5t 18.75-57.5z"  />
<glyph unicode="&#xf087;" d="M 64,48q0,6.5 -4.75,11.25t-11.25,4.75t-11.25-4.75t-4.75-11.25t 4.75-11.25t 11.25-4.75t 11.25,4.75t 4.75,11.25zM 352,192q0,12.75 -9.75,22.375t-22.25,9.625l-88,0 q0,14.5 12,39.875t 12,40.125q0,24.5 -8,36.25t-32,11.75q-6.5-6.5 -9.5-21.25t-7.625-31.375t-14.875-27.375q-5.5-5.75 -19.25-22.75q-1-1.25 -5.75-7.5t-7.875-10.25t-8.625-10.625 t-10-11t-9.625-8.875t-10-6.75t-8.875-2.25l-8,0 l0-160 l 8,0 q 3.25,0 7.875-0.75t 8.25-1.625t 9.5-2.75t 8.75-2.875t 8.875-3.125t 7.25-2.625q 52.75-18.25 85.5-18.25l 30.25,0 q 48,0 48,41.75q0,6.5 -1.25,14q 7.5,4 11.875,13.125t 4.375,18.375t-4.5,17.25q 13.25,12.5 13.25,29.75q0,6.25 -2.5,13.875t-6.25,11.875q 8,0.25 13.375,11.75t 5.375,20.25zM 384,192.25 q0-22.25 -12.25-40.75q 2.25-8.25 2.25-17.25q0-19.25 -9.5-36q 0.75-5.25 0.75-10.75q0-25.25 -15-44.5q 0.25-34.75 -21.25-54.875t-56.75-20.125l-9,0 l-23.25,0 q-24,0 -47.375,5.625t-54.125,16.375q-29,10 -34.5,10l-72,0 q-13.25,0 -22.625,9.375t-9.375,22.625l0,160 q0,13.25 9.375,22.625t 22.625,9.375l 68.5,0 q 9,6 34.25,38.75q 14.5,18.75 26.75,32 q 6,6.25 8.875,21.375t 7.625,31.625t 15.5,27q 9.75,9.25 22.5,9.25q 21,0 37.75-8.125t 25.5-25.375t 8.75-46.5q0-23.25 -12-48l 44,0 q 26,0 45-19t 19-44.75z" horiz-adv-x="384"  />
<glyph unicode="&#xf088;" d="M 64,272q0,6.5 -4.75,11.25t-11.25,4.75t-11.25-4.75t-4.75-11.25t 4.75-11.25t 11.25-4.75t 11.25,4.75t 4.75,11.25zM 352,128q0,8.75 -5.375,20.25t-13.375,11.75q 3.75,4.25 6.25,11.875t 2.5,13.875q0,17.25 -13.25,29.75q 4.5,8 4.5,17.25t-4.375,18.375t-11.875,13.125q 1.25,7.5 1.25,14q0,21.25 -12.25,31.5t-34,10.25l-32,0 q-32.75,0 -85.5-18.25q-1.25-0.5 -7.25-2.625 t-8.875-3.125t-8.75-2.875t-9.5-2.75t-8.25-1.625t-7.875-0.75l-8,0 l0-160 l 8,0 q 4,0 8.875-2.25t 10-6.75t 9.625-8.875t 10-11t 8.625-10.625t 7.875-10.25t 5.75-7.5q 13.75-17 19.25-22.75q 10.25-10.75 14.875-27.375t 7.625-31.375t 9.5-21.25q 24,0 32,11.75t 8,36.25q0,14.75 -12,40.125t-12,39.875l 88,0 q 12.5,0 22.25,9.625t 9.75,22.375z M 384,127.75q0-25.75 -19-44.75t-45-19l-44,0 q 12-24.75 12-48q0-29.5 -8.75-46.5q-8.75-17.25 -25.5-25.375t-37.75-8.125q-12.75,0 -22.5,9.25q-8.5,8.25 -13.5,20.5t-6.375,22.625t-4.375,21.125t-7.75,16q-12,12.5 -26.75,31.75q-25.25,32.75 -34.25,38.75l-68.5,0 q-13.25,0 -22.625,9.375t-9.375,22.625l0,160 q0,13.25 9.375,22.625t 22.625,9.375 l 72,0 q 5.5,0 34.5,10q 32,11 55.75,16.5t 50,5.5l 28,0 q 35,0 56.625-19.75t 21.375-54l0-1.25 q 15-19.25 15-44.5q0-5.5 -0.75-10.75q 9.5-16.75 9.5-36q0-9 -2.25-17.25q 12.25-18.5 12.25-40.75z" horiz-adv-x="384"  />
<glyph unicode="&#xf089;" d="M 208,376l0-334.75 l-112.25-59q-5.5-3 -10-3q-5.25,0 -7.875,3.625t-2.625,8.875q0,1.5 0.5,5l 21.5,125l-91,88.5q-6.25,6.75 -6.25,12q0,9.25 14,11.5l 125.5,18.25l 56.25,113.75q 4.75,10.25 12.25,10.25z" horiz-adv-x="224"  />
<glyph unicode="&#xf08a;" d="M 416,235q0,20.25 -5.375,35.75t-13.75,24.625t-20.375,14.875t-23.5,7.75t-24.5,2t-28-6.375t-27.625-16t-21.625-18t-15-15.375q-4.5-5.5 -12.25-5.5t-12.25,5.5q-6,7 -15,15.375t-21.625,18t-27.625,16t-28,6.375t-24.5-2t-23.5-7.75t-20.375-14.875t-13.75-24.625t-5.375-35.75q0-42 46.75-88.75l 145.25-140l 145,139.75 q 47,47 47,89zM 448,235q0-55.25 -57.25-112.5l-155.75-150q-4.5-4.5 -11-4.5t-11,4.5l-156,150.5q-2.5,2 -6.875,6.5t-13.875,16.375t-17,24.375t-13.375,30.25t-5.875,34.5q0,55 31.75,86t 87.75,31q 15.5,0 31.625-5.375t 30-14.5t 23.875-17.125t 19-17q 9,9 19,17t 23.875,17.125t 30,14.5t 31.625,5.375 q 56,0 87.75-31t 31.75-86z"  />
<glyph unicode="&#xf08b;" d="M 160,24q0-1 0.25-5t 0.125-6.625t-0.75-5.875t-2.5-4.875t-5.125-1.625l-80,0 q-29.75,0 -50.875,21.125t-21.125,50.875l0,176 q0,29.75 21.125,50.875t 50.875,21.125l 80,0 q 3.25,0 5.625-2.375t 2.375-5.625q0-1 0.25-5t 0.125-6.625t-0.75-5.875t-2.5-4.875t-5.125-1.625l-80,0 q-16.5,0 -28.25-11.75t-11.75-28.25l0-176  q0-16.5 11.75-28.25t 28.25-11.75l 72,0 l 2.75,0 l 3.25,0 t 2.875-0.25t 2.875-0.75t 2-1.375t 1.75-2.25t 0.5-3.375zM 392,160q0-6.5 -4.75-11.25l-136-136q-4.75-4.75 -11.25-4.75t-11.25,4.75t-4.75,11.25l0,72 l-112,0 q-6.5,0 -11.25,4.75t-4.75,11.25l0,96 q0,6.5 4.75,11.25t 11.25,4.75l 112,0 l0,72 q0,6.5 4.75,11.25t 11.25,4.75t 11.25-4.75l 136-136q 4.75-4.75 4.75-11.25z" horiz-adv-x="416"  />
<glyph unicode="&#xf08c;" d="M 59.25,30.5l 57.75,0 l0,173.5 l-57.75,0 l0-173.5 zM 120.75,257.5q-0.25,13 -9,21.5t-23.25,8.5t-23.625-8.5t-9.125-21.5q0-12.75 8.875-21.375t 23.125-8.625l 0.25,0 q 14.75,0 23.75,8.625t 9,21.375zM 267,30.5l 57.75,0 l0,99.5 q0,38.5 -18.25,58.25t-48.25,19.75q-34,0 -52.25-29.25l 0.5,0 l0,25.25 l-57.75,0 q 0.75-16.5 0-173.5l 57.75,0 l0,97 q0,9.5 1.75,14q 3.75,8.75 11.25,14.875t 18.5,6.125 q 29,0 29-39.25l0-92.75 zM 384,280l0-240 q0-29.75 -21.125-50.875t-50.875-21.125l-240,0 q-29.75,0 -50.875,21.125t-21.125,50.875l0,240 q0,29.75 21.125,50.875t 50.875,21.125l 240,0 q 29.75,0 50.875-21.125t 21.125-50.875z" horiz-adv-x="384"  />
<glyph unicode="&#xf08d;" d="M 120,168l0,112 q0,3.5 -2.25,5.75t-5.75,2.25t-5.75-2.25t-2.25-5.75l0-112 q0-3.5 2.25-5.75t 5.75-2.25t 5.75,2.25t 2.25,5.75zM 288,80q0-6.5 -4.75-11.25t-11.25-4.75l-107.25,0 l-12.75-120.75q-0.5-3 -2.625-5.125t-5.125-2.125l-0.25,0 q-6.75,0 -8,6.75l-19,121.25l-101,0 q-6.5,0 -11.25,4.75t-4.75,11.25q0,30.75 19.625,55.375t 44.375,24.625l0,128 q-13,0 -22.5,9.5 t-9.5,22.5t 9.5,22.5t 22.5,9.5l 160,0 q 13,0 22.5-9.5t 9.5-22.5t-9.5-22.5t-22.5-9.5l0-128 q 24.75,0 44.375-24.625t 19.625-55.375z" horiz-adv-x="288"  />
<glyph unicode="&#xf08e;" d="M 352,152l0-80 q0-29.75 -21.125-50.875t-50.875-21.125l-208,0 q-29.75,0 -50.875,21.125t-21.125,50.875l0,208 q0,29.75 21.125,50.875t 50.875,21.125l 176,0 q 3.5,0 5.75-2.25t 2.25-5.75l0-16 q0-3.5 -2.25-5.75t-5.75-2.25l-176,0 q-16.5,0 -28.25-11.75t-11.75-28.25l0-208 q0-16.5 11.75-28.25t 28.25-11.75l 208,0 q 16.5,0 28.25,11.75t 11.75,28.25l0,80  q0,3.5 2.25,5.75t 5.75,2.25l 16,0 q 3.5,0 5.75-2.25t 2.25-5.75zM 448,368l0-128 q0-6.5 -4.75-11.25t-11.25-4.75t-11.25,4.75l-44,44l-163-163q-2.5-2.5 -5.75-2.5t-5.75,2.5l-28.5,28.5q-2.5,2.5 -2.5,5.75t 2.5,5.75l 163,163l-44,44q-4.75,4.75 -4.75,11.25t 4.75,11.25t 11.25,4.75l 128,0 q 6.5,0 11.25-4.75t 4.75-11.25z"  />
<glyph unicode="&#xf090;" d="M 296,160q0-6.5 -4.75-11.25l-136-136q-4.75-4.75 -11.25-4.75t-11.25,4.75t-4.75,11.25l0,72 l-112,0 q-6.5,0 -11.25,4.75t-4.75,11.25l0,96 q0,6.5 4.75,11.25t 11.25,4.75l 112,0 l0,72 q0,6.5 4.75,11.25t 11.25,4.75t 11.25-4.75l 136-136q 4.75-4.75 4.75-11.25zM 384,248l0-176 q0-29.75 -21.125-50.875t-50.875-21.125l-80,0 q-3.25,0 -5.625,2.375t-2.375,5.625 q0,1 -0.25,5t-0.125,6.625t 0.75,5.875t 2.5,4.875t 5.125,1.625l 80,0 q 16.5,0 28.25,11.75t 11.75,28.25l0,176 q0,16.5 -11.75,28.25t-28.25,11.75l-72,0 l-2.75,0 l-3.25,0 t-2.875,0.25t-2.875,0.75t-2,1.375t-1.75,2.25t-0.5,3.375q0,1 -0.25,5t-0.125,6.625t 0.75,5.875t 2.5,4.875t 5.125,1.625l 80,0 q 29.75,0 50.875-21.125t 21.125-50.875z" horiz-adv-x="384"  />
<glyph unicode="&#xf091;" d="M 114.5,163.25q-18.5,40.5 -18.5,92.75l-64,0 l0-24 q0-19.5 23.625-40.5t 58.875-28.25zM 384,232l0,24 l-64,0 q0-52.25 -18.5-92.75q 35.25,7.25 58.875,28.25t 23.625,40.5zM 416,264l0-32 q0-17.75 -10.375-35.75t-28-32.5t-43.25-24.375t-53.875-11.125q-10.5-13.5 -23.75-23.75q-9.5-8.5 -13.125-18.125t-3.625-22.375q0-13.5 7.625-22.75 t 24.375-9.25q 18.75,0 33.375-11.375t 14.625-28.625l0-16 q0-3.5 -2.25-5.75t-5.75-2.25l-208,0 q-3.5,0 -5.75,2.25t-2.25,5.75l0,16 q0,17.25 14.625,28.625t 33.375,11.375q 16.75,0 24.375,9.25t 7.625,22.75q0,12.75 -3.625,22.375t-13.125,18.125q-13.25,10.25 -23.75,23.75q-28.25,1.25 -53.875,11.125t-43.25,24.375t-28,32.5t-10.375,35.75l0,32 q0,10 7,17t 17,7l 72,0 l0,24  q0,16.5 11.75,28.25t 28.25,11.75l 144,0 q 16.5,0 28.25-11.75t 11.75-28.25l0-24 l 72,0 q 10,0 17-7t 7-17z" horiz-adv-x="416"  />
<glyph unicode="&#xf092;" d="M 98.5,46q-2-2.25 -5,0.75q-3.25,2.75 -1,4.75q 2,2.25 5-0.75q 3-2.75 1-4.75zM 88,61.25q 2.25-3 0-4.75q-2-1.5 -4.25,1.75t0,4.5q 2.25,1.75 4.25-1.5zM 72.75,76.25q-1.25-1.75 -3.25-0.5q-2.5,1.25 -1.75,3q 0.75,1.25 3.25,0.5q 2.5-1.25 1.75-3zM 80.5,67.75q-1.5-1.75 -4,0.75q-2.25,2.75 -0.5,4q 1.5,1.5 4-0.75q 2.25-2.75 0.5-4zM 112.75,39.75q-1-3 -4.75-1.5q-4.25,1 -3.25,3.75 t 4.75,1.75q 4-1.25 3.25-4zM 128.5,38.5q0-2.75 -4-2.75q-4.25-0.5 -4.25,2.75q0,2.75 4,2.75q 4.25,0.5 4.25-2.75zM 143,41q 0.5-2.5 -3.5-3.5t-4.5,2t 3.5,3.75q 4,0.5 4.5-2.25zM 384,280l0-240 q0-29.75 -21.125-50.875t-50.875-21.125l-56,0 q-4,0 -6.125,0.25t-4.875,1.25t-4,3.625t-1.25,6.875l0,59.75 q0,24.25 -13,35.5q 14.25,1.5 25.625,4.5t 23.5,9.75 t 20.25,16.625t 13.25,26.25t 5.125,37.625q0,30.25 -19.75,51.5q 9.25,22.75 -2,51q-7,2.25 -20.25-2.75t-23-11l-9.5-6q-23.25,6.5 -48,6.5t-48-6.5q-4,2.75 -10.625,6.75t-20.875,9.625t-21.5,3.375q-11-28.25 -1.75-51q-19.75-21.25 -19.75-51.5q0-21.25 5.125-37.5t 13.125-26.25t 20.125-16.75t 23.5-9.75t 25.625-4.5q-10-9 -12.25-25.75 q-5.25-2.5 -11.25-3.75t-14.25-1.25t-16.375,5.375t-13.875,15.625q-4.75,8 -12.125,13t-12.375,6l-5,0.75q-5.25,0 -7.25-1.125t-1.25-2.875t 2.25-3.5t 3.25-3l 1.75-1.25q 5.5-2.5 10.875-9.5t 7.875-12.75l 2.5-5.75q 3.25-9.5 11-15.375t 16.75-7.5t 17.375-1.75t 13.875,0.875l 5.75,1q0-9.5 0.125-25.75t 0.125-17q0-5.5 -2.75-8.375t-5.5-3.25t-8.25-0.375 l-56,0 q-29.75,0 -50.875,21.125t-21.125,50.875l0,240 q0,29.75 21.125,50.875t 50.875,21.125l 240,0 q 29.75,0 50.875-21.125t 21.125-50.875z" horiz-adv-x="384"  />
<glyph unicode="&#xf093;" d="M 320,16q0,6.5 -4.75,11.25t-11.25,4.75t-11.25-4.75t-4.75-11.25t 4.75-11.25t 11.25-4.75t 11.25,4.75t 4.75,11.25zM 384,16q0,6.5 -4.75,11.25t-11.25,4.75t-11.25-4.75t-4.75-11.25t 4.75-11.25t 11.25-4.75t 11.25,4.75t 4.75,11.25zM 416,72l0-80 q0-10 -7-17t-17-7l-368,0 q-10,0 -17,7t-7,17l0,80 q0,10 7,17t 17,7l 106.75,0 q 5.25-14 17.625-23 t 27.625-9l 64,0 q 15.25,0 27.625,9t 17.625,23l 106.75,0 q 10,0 17-7t 7-17zM 334.75,234q-4.25-10 -14.75-10l-64,0 l0-112 q0-6.5 -4.75-11.25t-11.25-4.75l-64,0 q-6.5,0 -11.25,4.75t-4.75,11.25l0,112 l-64,0 q-10.5,0 -14.75,10q-4.25,9.75 3.5,17.25l 112,112q 4.5,4.75 11.25,4.75t 11.25-4.75l 112-112q 7.75-7.5 3.5-17.25z" horiz-adv-x="416"  />
<glyph unicode="&#xf094;" d="M 351.75,177.5q0,11 -1.75,28.375t-4.5,24.125q-3,7.5 -4.25,11t-2.25,9.125t-1,12.125q0,5.75 1.25,17.125t 1.25,16.875q0,9.25 -2.5,13.75q-1,0.25 -3.25,0.25q-4.75,0 -14.5-1.125t-14.75-1.125q-15,0 -44,6t-43.75,6q-10.75,0 -23.625-2.875t-21.25-5.875t-22.375-8.5q-34.25-13.5 -50.5-25.75q-24-18.25 -39.875-47.375t-22-59t-6.125-62.125 q0-10 3.125-30t 3.125-30.25q0-5.75 -2.75-16.625t-2.75-16.375t 3-9.125t 8.5-3.625q 6,0 18.125,2.75t 18.375,2.75q 14.25,0 42.375-3.875t 42.375-3.875q 45.25,0 71,9q 32.25,11.25 58.875,38.125t 41.5,61.375t 14.875,68.75zM 383.75,178q0-41.25 -17.5-81.875t-49-72t-70.25-45.125q-31-11 -81.5-11 q-14.25,0 -42.5,3.625t-42.25,3.625q-6,0 -18.125-3.625t-18.375-3.625q-18.25,0 -30.875,13.875t-12.625,32.125q0,6 2.75,17t 2.75,16.75q0,10 -3.125,30.125t-3.125,30.375q0,27.75 4.5,54.375t 13.625,52.375t 25.125,48.5t 37.5,39q 19.5,14.75 58,30q 48.5,19.5 79,19.5q 15,0 43.875-6t 43.375-6q 4.75,0 14.25,1.25t 14.5,1.25 q 20.25,0 29.5-12.625t 9.25-33.625q0-5.75 -1.25-17t-1.25-17q0-2.5 0.25-4.625t 0.75-4.25t 1-3.375t 1.625-4t 1.625-4.25q 4-10 6.25-29.625t 2.25-34.125z" horiz-adv-x="384"  />
<glyph unicode="&#xf095;" d="M 352,74q0-6.75 -2.5-17.625t-5.25-17.125q-5.25-12.5 -30.5-26.5q-23.5-12.75 -46.5-12.75q-6.75,0 -13.125,0.875t-14.375,3.125t-11.875,3.625t-13.875,5.125t-12.25,4.5q-24.5,8.75 -43.75,20.75q-32,19.75 -66.125,53.875t-53.875,66.125q-12,19.25 -20.75,43.75q-0.75,2.25 -4.5,12.25t-5.125,13.875t-3.625,11.875t-3.125,14.375t-0.875,13.125 q0,23 12.75,46.5q 14,25.25 26.5,30.5q 6.25,2.75 17.125,5.25t 17.625,2.5q 3.5,0 5.25-0.75q 4.5-1.5 13.25-19q 2.75-4.75 7.5-13.5t 8.75-15.875t 7.75-13.375q 0.75-1 4.375-6.25t 5.375-8.875t 1.75-7.125q0-5 -7.125-12.5t-15.5-13.75t-15.5-13.25t-7.125-11.5q0-2.25 1.25-5.625t 2.125-5.125t 3.5-6t 2.875-4.75q 19-34.25 43.5-58.75t 58.75-43.5 q 0.5-0.25 4.75-2.875t 6-3.5t 5.125-2.125t 5.625-1.25q 4.5,0 11.5,7.125t 13.25,15.5t 13.75,15.5t 12.5,7.125q 3.5,0 7.125-1.75t 8.875-5.375t 6.25-4.375q 6.25-3.75 13.375-7.75t 15.875-8.75t 13.5-7.5q 17.5-8.75 19-13.25q 0.75-1.75 0.75-5.25z" horiz-adv-x="352"  />
<glyph unicode="&#xf096;" d="M 280,320l-208,0 q-16.5,0 -28.25-11.75t-11.75-28.25l0-208 q0-16.5 11.75-28.25t 28.25-11.75l 208,0 q 16.5,0 28.25,11.75t 11.75,28.25l0,208 q0,16.5 -11.75,28.25t-28.25,11.75zM 352,280l0-208 q0-29.75 -21.125-50.875t-50.875-21.125l-208,0 q-29.75,0 -50.875,21.125t-21.125,50.875l0,208 q0,29.75 21.125,50.875t 50.875,21.125l 208,0  q 29.75,0 50.875-21.125t 21.125-50.875z" horiz-adv-x="352"  />
<glyph unicode="&#xf097;" d="M 288,320l-256,0 l0-310.5 l 105.75,101.5l 22.25,21.25l 22.25-21.25l 105.75-101.5l0,310.5 zM 291,352q 5.75,0 11-2.25q 8.25-3.25 13.125-10.25t 4.875-15.5l0-322.25 q0-8.5 -4.875-15.5t-13.125-10.25q-4.75-2 -11-2q-12,0 -20.75,8l-110.25,106l-110.25-106q-9-8.25 -20.75-8.25q-5.75,0 -11,2.25q-8.25,3.25 -13.125,10.25t-4.875,15.5l0,322.25  q0,8.5 4.875,15.5t 13.125,10.25q 5.25,2.25 11,2.25l 262,0 z" horiz-adv-x="320"  />
<glyph unicode="&#xf098;" d="M 320,85.75q0,2.75 -0.5,4q-0.75,2 -9.625,7.375t-22.125,12.375l-13.25,7.25q-1.25,0.75 -4.75,3.25t-6.25,3.75t-5.25,1.25q-4.5,0 -11.75-8.125t-14.25-16.375t-11-8.25q-1.75,0 -4.125,0.875t-3.875,1.625t-4.25,2.375t-3.5,2.125q-24.75,13.75 -42.625,31.625t-31.625,42.625q-0.5,0.75 -2.125,3.5t-2.375,4.25t-1.625,3.875t-0.875,4.125q0,3.25 5.125,8.375t 11.25,9.625 t 11.25,9.875t 5.125,9.125q0,2.5 -1.25,5.25t-3.75,6.25t-3.25,4.75q-0.75,1.5 -3.75,7.125t-6.25,11.375t-6.625,11.875t-6.25,10.125t-4.125,4.5t-4,0.5q-12,0 -25.25-5.5q-11.5-5.25 -20-23.625t-8.5-32.625q0-4 0.625-8.5t 1.25-7.625t 2.25-8.25t 2.5-7.375t 3.125-8.25t 2.75-7.5q 15-41 54.125-80.125t 80.125-54.125q 1.5-0.5 7.5-2.75t 8.25-3.125 t 7.375-2.5t 8.25-2.25t 7.625-1.25t 8.5-0.625q 14.25,0 32.625,8.5t 23.625,20q 5.5,13.25 5.5,25.25zM 384,280l0-240 q0-29.75 -21.125-50.875t-50.875-21.125l-240,0 q-29.75,0 -50.875,21.125t-21.125,50.875l0,240 q0,29.75 21.125,50.875t 50.875,21.125l 240,0 q 29.75,0 50.875-21.125t 21.125-50.875z" horiz-adv-x="384"  />
<glyph unicode="&#xf099;" d="M 405,282q-16.75-24.5 -40.5-41.75q 0.25-3.5 0.25-10.5q0-32.5 -9.5-64.875t-28.875-62.125t-46.125-52.625t-64.5-36.5t-80.75-13.625q-67.75,0 -124,36.25q 8.75-1 19.5-1q 56.25,0 100.25,34.5q-26.25,0.5 -47,16.125t-28.5,39.875q 8.25-1.25 15.25-1.25q 10.75,0 21.25,2.75q-28,5.75 -46.375,27.875t-18.375,51.375l0,1 q 17-9.5 36.5-10.25 q-16.5,11 -26.25,28.75t-9.75,38.5q0,22 11,40.75q 30.25-37.25 73.625-59.625t 92.875-24.875q-2,9.5 -2,18.5q0,33.5 23.625,57.125t 57.125,23.625q 35,0 59-25.5q 27.25,5.25 51.25,19.5q-9.25-28.75 -35.5-44.5q 23.25,2.5 46.5,12.5z" horiz-adv-x="416"  />
<glyph unicode="&#xf09a;" d="M 127.75,245l 64.25,0 l-7.5-71l-56.75,0 l0-206 l-85.25,0 l0,206 l-42.5,0 l0,71 l 42.5,0 l0,42.75 q0,45.5 21.5,68.875t 70.75,23.375l 56.75,0 l0-71 l-35.5,0 q-9.75,0 -15.625-1.625t-8.5-5.875t-3.375-8.625t-0.75-12.375l0-35.5 z" horiz-adv-x="192"  />
<glyph unicode="&#xf09b;" d="M 384,160q0-62.75 -36.625-112.875t-94.625-69.375q-6.75-1.25 -9.875,1.75t-3.125,7.5l0,52.75 q0,24.25 -13,35.5q 14.25,1.5 25.625,4.5t 23.5,9.75t 20.25,16.625t 13.25,26.25t 5.125,37.625q0,30.25 -19.75,51.5q 9.25,22.75 -2,51q-7,2.25 -20.25-2.75t-23-11l-9.5-6q-23.25,6.5 -48,6.5t-48-6.5q-4,2.75 -10.625,6.75t-20.875,9.625t-21.5,3.375 q-11-28.25 -1.75-51q-19.75-21.25 -19.75-51.5q0-21.25 5.125-37.5t 13.125-26.25t 20.125-16.75t 23.5-9.75t 25.625-4.5q-10-9 -12.25-25.75q-5.25-2.5 -11.25-3.75t-14.25-1.25t-16.375,5.375t-13.875,15.625q-4.75,8 -12.125,13t-12.375,6l-5,0.75q-5.25,0 -7.25-1.125t-1.25-2.875t 2.25-3.5t 3.25-3l 1.75-1.25q 5.5-2.5 10.875-9.5t 7.875-12.75l 2.5-5.75 q 3.25-9.5 11-15.375t 16.75-7.5t 17.375-1.75t 13.875,0.875l 5.75,1q0-9.5 0.125-22.25t 0.125-13.5q0-4.5 -3.25-7.5t-10-1.75q-58,19.25 -94.625,69.375t-36.625,112.875q0,52.25 25.75,96.375t 69.875,69.875t 96.375,25.75t 96.375-25.75t 69.875-69.875t 25.75-96.375z" horiz-adv-x="384"  />
<glyph unicode="&#xf09c;" d="M 416,240l0-64 q0-6.5 -4.75-11.25t-11.25-4.75l-16,0 q-6.5,0 -11.25,4.75t-4.75,11.25l0,64 q0,26.5 -18.75,45.25t-45.25,18.75t-45.25-18.75t-18.75-45.25l0-48 l 24,0 q 10,0 17-7t 7-17l0-144 q0-10 -7-17t-17-7l-240,0 q-10,0 -17,7t-7,17l0,144 q0,10 7,17t 17,7l 168,0 l0,48 q0,46.25 32.875,79.125t 79.125,32.875 t 79.125-32.875t 32.875-79.125z" horiz-adv-x="416"  />
<glyph unicode="&#xf09d;" d="M 440,352q 16.5,0 28.25-11.75t 11.75-28.25l0-304 q0-16.5 -11.75-28.25t-28.25-11.75l-400,0 q-16.5,0 -28.25,11.75t-11.75,28.25l0,304 q0,16.5 11.75,28.25t 28.25,11.75l 400,0 zM 40,320q-3.25,0 -5.625-2.375t-2.375-5.625l0-56 l 416,0 l0,56 q0,3.25 -2.375,5.625t-5.625,2.375l-400,0 zM 440,0q 3.25,0 5.625,2.375t 2.375,5.625l0,152 l-416,0 l0-152  q0-3.25 2.375-5.625t 5.625-2.375l 400,0 zM 64,32l0,32 l 64,0 l0-32 l-64,0 zM 160,32l0,32 l 96,0 l0-32 l-96,0 z" horiz-adv-x="480"  />
<glyph unicode="&#xf09e;" d="M 96,48q0-20 -14-34t-34-14t-34,14t-14,34t 14,34t 34,14t 34-14t 14-34zM 224,17.25q 0.5-7 -4.25-12q-4.5-5.25 -11.75-5.25l-33.75,0 q-6.25,0 -10.75,4.125t-5,10.375q-5.5,57.25 -46.125,97.875t-97.875,46.125q-6.25,0.5 -10.375,5t-4.125,10.75l0,33.75 q0,7.25 5.25,11.75q 4.25,4.25 10.75,4.25l 1.25,0 q 40-3.25 76.5-20.125 t 64.75-45.375q 28.5-28.25 45.375-64.75t 20.125-76.5zM 352,16.75q 0.5-6.75 -4.5-11.75q-4.5-5 -11.5-5l-35.75,0 q-6.5,0 -11.125,4.375t-4.875,10.625q-3,53.75 -25.25,102.125t-57.875,84t-84,57.875t-102.125,25.5q-6.25,0.25 -10.625,4.875t-4.375,10.875l0,35.75 q0,7 5,11.5q 4.5,4.5 11,4.5l 0.75,0 q 65.5-3.25 125.375-30t 106.375-73.5 q 46.75-46.5 73.5-106.375t 30-125.375z" horiz-adv-x="352"  />
</font>
</defs>
</svg>
